Delano Athias - Getting Started with MEL in Maya (2014) торрент

Ответить на тему
 
Автор Сообщение

Prescious ®

Delano Athias | Getting Started with MEL in Maya (2014) PCRec - Автор: Delano Athias
Производство: Digital Tutors
Жанр: Скриптинг
Описание:
Добро пожаловать в этот урок, созданный для того, чтобы ускорить вашу работу с помощью скриптинга MEL.
Мы начнем с изучения основного синтаксиса MEL для того, чтобы написать код для команд и запуска команд Maya. Затем мы узнаем, как создавать переменные, работать с их различными типами и последовательностями.
Мы узнаем, как создавать массивы, циклы 'for' и окна, так что мы сможем получить свои собственные эффективные инструменты, которые мы, а также и другие художники, сможем использовать в Maya.
В конце этого урока у вас будут четкие базовые представления о комфортной работе с MEL.
Продолжительность: 01:43:00
Качество видео: PCRec
Видео: AVC/H.264, 1280x720, ~1318kbps
Аудио: MP3, 2 ch, 256kbps

MediaInfo:

Общее
Уникальный идентификатор : 252885959576097874153316075671025415278 (0xBE40106FD278D597B39F20FAC7A0F46E)
Полное имя : G:\MAYA\[Digital Tutors] Getting Started with MEL in Maya Введение в MEL в Maya\01_Introduction_and_project_overview.mkv
Формат : Matroska
Версия формата : Version 4
Размер файла : 10,1 Мбайт
Продолжительность : 57 с. 313 мс.
Общий поток : 1 471 Кбит/сек
Дата кодирования : UTC 2016-03-22 15:06:50
Программа кодирования : mkvmerge v7.2.0 ('On Every Street') 32bit built on Sep 13 2014 15:42:11
Библиотека кодирования : libebml v1.3.0 + libmatroska v1.4.1
Видео
Идентификатор : 1
Формат : AVC
Формат/Информация : Advanced Video Codec
Профиль формата : Main@L3.1
Настройки формата : CABAC / 4 Ref Frames
Параметр CABAC формата : Да
Параметр RefFrames формата : 4 кадра
Идентификатор кодека : V_MPEG4/ISO/AVC
Продолжительность : 52 с. 734 мс.
Битрейт : 1 318 Кбит/сек
Номинальный битрейт : 1 100 Кбит/сек
Ширина : 1 280 пикселей
Высота : 720 пикселей
Соотношение сторон : 16:9
Режим частоты кадров : Постоянный
Частота кадров : 15,000 кадров/сек
Цветовое пространство : YUV
Субдискретизация насыщенности : 4:2:0
Битовая глубина : 8 бит
Тип развёртки : Прогрессивная
Бит/(Пиксели*Кадры) : 0.095
Размер потока : 8,29 Мбайт (82%)
Библиотека кодирования : x264 core 129 r2230 1cffe9f
Настройки программы : cabac=1 / ref=3 / deblock=1:0:0 / analyse=0x1:0x111 / me=hex / subme=7 / psy=1 / psy_rd=1.00:0.00 / mixed_ref=1 / me_range=16 / chroma_me=1 / trellis=1 / 8x8dct=0 / cqm=0 / deadzone=21,11 / fast_pskip=1 / chroma_qp_offset=-2 / threads=12 / lookahead_threads=2 / sliced_threads=0 / nr=0 / decimate=1 / interlaced=0 / bluray_compat=0 / constrained_intra=0 / bframes=3 / b_pyramid=2 / b_adapt=1 / b_bias=0 / direct=1 / weightb=1 / open_gop=0 / weightp=2 / keyint=10 / keyint_min=1 / scenecut=40 / intra_refresh=0 / rc_lookahead=10 / rc=abr / mbtree=1 / bitrate=1100 / ratetol=1.0 / qcomp=0.60 / qpmin=0 / qpmax=69 / qpstep=4 / ip_ratio=1.40 / aq=1:1.00
Default : Да
Forced : Нет
Аудио
Идентификатор : 2
Формат : MPEG Audio
Версия формата : Version 1
Профиль формата : Layer 3
Идентификатор кодека : A_MPEG/L3
Идентификатор кодека/Подсказка : MP3
Продолжительность : 57 с. 313 мс.
Вид битрейта : Постоянный
Битрейт : 256 Кбит/сек
Каналы : 2 канала
Частота : 44,1 КГц
Частота кадров : 38,281 кадров/сек (1152 SPF)
Метод сжатия : С потерями
Размер потока : 1,75 Мбайт (17%)
Default : Да
Forced : Нет

Дополнительная информация:

Maya
Скриншоты:
Скачать .torrent

Чтобы скачать торрент-файл

Delano Athias - Getting Started with MEL in Maya (2014)

Вам нужно Авторизоваться на сайте под своим логином. Если у Вы ещё не зарегистрированы, тогда Вам нужно пройти Регистрацию


Показать сообщения:    
Ответить на тему

Скачать Delano Athias - Getting Started with MEL in Maya (2014) торрент бесплатно. Отзывы, слив складчины.

Текущее время: Сегодня 01:05

Часовой пояс: GMT + 4



Вы не можете начинать темы
Вы не можете отвечать на сообщения
Вы не можете редактировать свои сообщения
Вы не можете удалять свои сообщения
Вы не можете голосовать в опросах
Вы не можете прикреплять файлы к сообщениям
Вы не можете скачивать файлы