Новые раздачи

29-Ноя
29-Ноя
29-Ноя
28-Ноя
28-Ноя
28-Ноя
28-Ноя
28-Ноя
28-Ноя
28-Ноя
28-Ноя
28-Ноя
28-Ноя
28-Ноя
28-Ноя

Важное

Ari Danesh - Houdini Projects: Terrain Generation (2015) торрент

Ответить на тему
 
Автор Сообщение

Prescious ®

Ari Danesh | Houdini Projects: Terrain Generation (2015) PCRec - Автор: Ari Danesh
Производство: SideFX
Жанр: Создание ландшафта
Описание:
Мастер-класс от разработчика мирового лидера в сфере CG - компании SideFX.
- Вступление
- Планирование и рабочий процес
- Настройка проекта
- Генерация ландшафта с помощью Sculpt SOP
- Topology Curves для создания ландшафта
- Ландшафт на основе изображения - использование COPs
- Добавление функций с использованием Roto Shapes
- Добавление функций с использованием градиентов - генерация склона, частоты и кривизны
- Scree Fields - процедурный подход для заполнения ландшафта камнями и деревьями
Продолжительность: 03:55:21
Качество видео: PCRec
Видео: AVC/H.264, 1920x1080, ~1240 kbps
Аудио: MP2, 2 ch, 223 kbps

MediaInfo:

Общее
Полное имя : G:\Houdini\SideFX -Houdini Projects Terrain Generation\Houdini Projects_ Terrain Generation 1.mp4
Формат : MPEG-4
Профиль формата : Base Media / Version 2
Идентификатор кодека : mp42 (mp42/isom)
Размер файла : 1,23 Гбайт
Продолжительность : 2 ч. 0 м.
Режим общего битрейта : Переменный
Общий поток : 1 468 Кбит/сек
Дата кодирования : UTC 2015-01-07 14:23:43
Дата пометки : UTC 2015-01-07 15:03:52
Видео
Идентификатор : 1
Формат : AVC
Формат/Информация : Advanced Video Codec
Профиль формата : Main@L5
Настройки формата : CABAC / 5 Ref Frames
Параметр CABAC формата : Да
Параметр RefFrames формата : 5 кадров
Параметр GOP формата : M=4, N=25
Идентификатор кодека : avc1
Идентификатор кодека/Информация : Advanced Video Coding
Продолжительность : 2 ч. 0 м.
Битрейт : 1 240 Кбит/сек
Ширина : 1 920 пикселей
Высота : 1 080 пикселей
Соотношение сторон : 16:9
Режим частоты кадров : Постоянный
Частота кадров : 30,000 кадров/сек
Цветовое пространство : YUV
Субдискретизация насыщенности : 4:2:0
Битовая глубина : 8 бит
Тип развёртки : Прогрессивная
Бит/(Пиксели*Кадры) : 0.020
Размер потока : 1,04 Гбайт (84%)
Дата кодирования : UTC 2015-01-07 14:23:43
Дата пометки : UTC 2015-01-07 15:03:51
Основные цвета : BT.709
Характеристики трансфера : BT.709
Коэффициенты матрицы : BT.709
Codec configuration box : avcC
Аудио
Идентификатор : 2
Формат : AAC LC
Формат/Информация : Advanced Audio Codec Low Complexity
Идентификатор кодека : mp4a-40-2
Продолжительность : 2 ч. 0 м.
Вид битрейта : Переменный
Битрейт : 223 Кбит/сек
Максимальный битрейт : 417 Кбит/сек
Каналы : 2 канала
Channel layout : L R
Частота : 44,1 КГц
Частота кадров : 43,066 кадра/сек (1024 SPF)
Метод сжатия : С потерями
Размер потока : 192 Мбайт (15%)
Дата кодирования : UTC 2015-01-07 14:23:43
Дата пометки : UTC 2015-01-07 14:28:50

Дополнительная информация:

SideFX Houdini
Скриншоты:
Скачать .torrent

Чтобы скачать торрент-файл

Ari Danesh - Houdini Projects: Terrain Generation (2015)

Вам нужно Авторизоваться на сайте под своим логином. Если у Вы ещё не зарегистрированы, тогда Вам нужно пройти Регистрацию


Показать сообщения:    
Ответить на тему

Скачать Ari Danesh - Houdini Projects: Terrain Generation (2015) торрент бесплатно. Отзывы, слив складчины.

Текущее время: Сегодня 12:27

Часовой пояс: GMT + 4



Вы не можете начинать темы
Вы не можете отвечать на сообщения
Вы не можете редактировать свои сообщения
Вы не можете удалять свои сообщения
Вы не можете голосовать в опросах
Вы не можете прикреплять файлы к сообщениям
Вы не можете скачивать файлы