Joe Mandia - Animating with Maya for Games and More (2012) торрент

Ответить на тему
 
Автор Сообщение

Prescious ®

Joe Mandia | Animating with Maya for Games and More (2012) PCRec - Автор: Joe Mandia
Производство: Eat3D
Жанр: Анимация
Описание:
В этом курсе Джо Мендиа учит вас фундаментальным принципам анимации в Maya 2012 с ориентиром на игрострой. Несмотря на то, что большую часть времени речь будет идти об анимации для игр, материалы данного курса будут полезны аниматорам из любой сферы. Темы, которые охватывает данный курс:
1. Настройка пользовательского интерфейса
2. 12 принципов анимации (тайминг, спейсинг, вторичные движения, одновременные действия и т.д.)
3. Внесение коррективов в анимацию и создание финальной анимации высокого качества.
Продолжительность: 08:00:00
Качество видео: PCRec
Видео: AVC/H.264, 1280x720, ~~65kbps
Аудио: MP3, 2 ch, 103kbps

MediaInfo:

Общее
Полное имя : G:\MAYA\Eat3D - Animating with Maya for Games and More RUS\CD1\animation_intro_05_timing_01.mp4
Формат : MPEG-4
Профиль формата : JVT
Идентификатор кодека : avc1 (isom/avc1)
Размер файла : 19,9 Мбайт
Продолжительность : 25 м. 32 с.
Режим общего битрейта : Переменный
Общий поток : 109 Кбит/сек
Дата кодирования : UTC 2012-09-07 20:27:28
Дата пометки : UTC 2012-09-07 20:27:28
Видео
Идентификатор : 1
Формат : AVC
Формат/Информация : Advanced Video Codec
Профиль формата : Baseline@L3.2
Настройки формата : 3 Ref Frames
Параметр CABAC формата : Нет
Параметр RefFrames формата : 3 кадра
Идентификатор кодека : avc1
Идентификатор кодека/Информация : Advanced Video Coding
Продолжительность : 25 м. 32 с.
Продолжительность оригинала : 25 м. 32 с.
Битрейт : 65,0 Кбит/сек
Максимальный битрейт : 1 073 Кбит/сек
Ширина : 1 280 пикселей
Высота : 720 пикселей
Соотношение сторон : 16:9
Режим частоты кадров : Постоянный
Частота кадров : 15,000 кадров/сек
Цветовое пространство : YUV
Субдискретизация насыщенности : 4:2:0
Битовая глубина : 8 бит
Тип развёртки : Прогрессивная
Бит/(Пиксели*Кадры) : 0.005
Размер потока : 11,9 Мбайт (60%)
Размер потока оригинала : 14,0 Мбайт (71%)
Заголовок : :delay=93 - Imported with GPAC 0.4.6-DEV-rev4054
Библиотека кодирования : x264 core 125 r2200 999b753
Настройки программы : cabac=0 / ref=3 / deblock=1:-1:-1 / analyse=0x1:0x131 / me=esa / subme=11 / psy=1 / psy_rd=0.80:0.20 / mixed_ref=1 / me_range=16 / chroma_me=1 / trellis=2 / 8x8dct=0 / cqm=0 / deadzone=21,11 / fast_pskip=0 / chroma_qp_offset=-3 / threads=36 / lookahead_threads=6 / sliced_threads=0 / nr=0 / decimate=1 / interlaced=0 / bluray_compat=0 / constrained_intra=0 / bframes=0 / weightp=0 / keyint=250 / keyint_min=15 / scenecut=40 / intra_refresh=0 / rc_lookahead=250 / rc=crf / mbtree=1 / crf=28.0 / qcomp=0.60 / qpmin=0 / qpmax=69 / qpstep=4 / vbv_maxrate=5000 / vbv_bufsize=5000 / crf_max=0.0 / nal_hrd=none / ip_ratio=1.40 / aq=2:1.00
Дата кодирования : UTC 2012-09-07 20:27:28
Дата пометки : UTC 2012-09-07 20:27:30
Codec configuration box : avcC
Аудио
Формат : MPEG Audio
Версия формата : Version 1
Профиль формата : Layer 3
Продолжительность : 4 м. 27 с.
Вид битрейта : Переменный
Битрейт : 178 Кбит/сек
Каналы : 2 канала
Частота : 48,0 КГц
Частота кадров : 41,667 кадра/сек (1152 SPF)
Метод сжатия : С потерями
Размер потока : 5,70 Мбайт (100%)

Дополнительная информация:

Maya 2012+
Скриншоты:
Скачать .torrent

Чтобы скачать торрент-файл

Joe Mandia - Animating with Maya for Games and More (2012)

Вам нужно Авторизоваться на сайте под своим логином. Если у Вы ещё не зарегистрированы, тогда Вам нужно пройти Регистрацию


Показать сообщения:    
Ответить на тему

Скачать Joe Mandia - Animating with Maya for Games and More (2012) торрент бесплатно. Отзывы, слив складчины.

Текущее время: Сегодня 18:12

Часовой пояс: GMT + 4



Вы не можете начинать темы
Вы не можете отвечать на сообщения
Вы не можете редактировать свои сообщения
Вы не можете удалять свои сообщения
Вы не можете голосовать в опросах
Вы не можете прикреплять файлы к сообщениям
Вы не можете скачивать файлы