Новые раздачи

26-Ноя
26-Ноя
26-Ноя
25-Ноя
25-Ноя
25-Ноя
25-Ноя
24-Ноя
24-Ноя
24-Ноя
24-Ноя
24-Ноя
24-Ноя
24-Ноя
24-Ноя

Важное

John Lynch - Houdini 17 Masterclass: Advanced Vellum Workflows (2019) торрент

Ответить на тему
 
Автор Сообщение

Prescious ®

John Lynch | Houdini 17 Masterclass: Advanced Vellum Workflows (2019) PCRec - Автор: John Lynch
Производство: Side FX
Жанр: Создание видео
Описание:
У Vellum солвера в Houdini есть множество компонентов для интересных эффектов, таких как липкие столкновения, разрывы, деформируемые твердые вещества и постоянный изгиб от пластической деформации. В этом мастер-классе представлен обзор внутренних операций солвера Vellum, а затем описывается его использование в подобных эффектах, попутно охватывая такие темы, как раскраска графа, анимированные свойства констрейнтов, динамические констрейнты, пластичность и мягкие тела.

Продолжение описания:

Содержание:
1. PBD — динамика, основанная на изменении позиции.
2. Метод интеграции.
3. Раскраска графа.
4. Итерации солвера.
5. Закрепление и сшивание.
6. Жесткое сшивание.
7. Жесткие констрейнты — разрывы.
8. Анимирование констрейнтов.
9. Динамические констрейнты.
10. Пластичность.
11. Мягкие тела (Soft Body) и гранулы (Grains).
Продолжительность: 02:56:00
Качество видео: PCRec
Видео: AVC/H.264, 1920x1080, ~~1763kbps
Аудио: MP3, 2 ch, 329kbps

MediaInfo:

Общее
Полное имя : G:\Houdini\[Side FX] Houdini 17 Masterclass Advanced Vellum Workflows [ENG-RUS]\[RUS] Advanced Vellum Workflows.mp4
Формат : MPEG-4
Профиль формата : Base Media / Version 2
Идентификатор кодека : mp42 (isom/iso2/avc1/mp41)
Размер файла : 2,59 Гбайт
Продолжительность : 2 ч. 56 м.
Режим общего битрейта : Переменный
Общий поток : 2 098 Кбит/сек
Дата кодирования : UTC 2019-06-10 16:44:21
Дата пометки : UTC 2019-06-10 16:44:21
Программа кодирования : HandBrake 1.1.2 2018090500
Видео
Идентификатор : 1
Формат : AVC
Формат/Информация : Advanced Video Codec
Профиль формата : High@L4.2
Настройки формата : CABAC / 2 Ref Frames
Параметр CABAC формата : Да
Параметр RefFrames формата : 2 кадра
Идентификатор кодека : avc1
Идентификатор кодека/Информация : Advanced Video Coding
Продолжительность : 2 ч. 56 м.
Битрейт : 1 763 Кбит/сек
Ширина : 1 920 пикселей
Высота : 1 080 пикселей
Соотношение сторон : 16:9
Режим частоты кадров : Постоянный
Частота кадров : 29,970 (30000/1001) кадров/сек
Цветовое пространство : YUV
Субдискретизация насыщенности : 4:2:0
Битовая глубина : 8 бит
Тип развёртки : Прогрессивная
Бит/(Пиксели*Кадры) : 0.028
Размер потока : 2,17 Гбайт (84%)
Библиотека кодирования : x264 core 155 r2901 7d0ff22
Настройки программы : cabac=1 / ref=1 / deblock=1:0:0 / analyse=0x3:0x113 / me=hex / subme=7 / psy=1 / psy_rd=1.00:0.00 / mixed_ref=0 / me_range=16 / chroma_me=1 / trellis=1 / 8x8dct=1 / cqm=0 / deadzone=21,11 / fast_pskip=1 / chroma_qp_offset=-2 / threads=12 / lookahead_threads=2 / sliced_threads=0 / nr=0 / decimate=1 / interlaced=0 / bluray_compat=0 / constrained_intra=0 / bframes=2 / b_pyramid=0 / b_adapt=1 / b_bias=0 / direct=1 / weightb=1 / open_gop=0 / weightp=2 / keyint=30 / keyint_min=15 / scenecut=40 / intra_refresh=0 / rc_lookahead=37 / rc=crf / mbtree=1 / crf=20.0 / qcomp=0.60 / qpmin=0 / qpmax=69 / qpstep=4 / vbv_maxrate=62500 / vbv_bufsize=78125 / crf_max=0.0 / nal_hrd=none / filler=0 / ip_ratio=1.40 / aq=1:1.00
Дата кодирования : UTC 2019-06-10 16:44:21
Дата пометки : UTC 2019-06-10 16:44:21
Цветовой диапазон : Limited
Основные цвета : BT.709
Характеристики трансфера : BT.709
Коэффициенты матрицы : BT.709
Codec configuration box : avcC
Аудио
Идентификатор : 2
Формат : AAC LC
Формат/Информация : Advanced Audio Codec Low Complexity
Идентификатор кодека : mp4a-40-2
Продолжительность : 2 ч. 56 м.
Вид битрейта : Переменный
Битрейт : 329 Кбит/сек
Каналы : 2 канала
Channel layout : L R
Частота : 48,0 КГц
Частота кадров : 46,875 кадров/сек (1024 SPF)
Метод сжатия : С потерями
Размер потока : 415 Мбайт (16%)
Заголовок : Stereo / Stereo
Язык : English
Default : Да
Alternate group : 1
Дата кодирования : UTC 2019-06-10 16:44:21
Дата пометки : UTC 2019-06-10 16:44:21

Дополнительная информация:

Houdini 17
Скриншоты:
Скачать .torrent

Чтобы скачать торрент-файл

John Lynch - Houdini 17 Masterclass: Advanced Vellum Workflows (2019)

Вам нужно Авторизоваться на сайте под своим логином. Если у Вы ещё не зарегистрированы, тогда Вам нужно пройти Регистрацию


Показать сообщения:    
Ответить на тему

Скачать John Lynch - Houdini 17 Masterclass: Advanced Vellum Workflows (2019) торрент бесплатно. Отзывы, слив складчины.

Текущее время: Сегодня 14:14

Часовой пояс: GMT + 4



Вы не можете начинать темы
Вы не можете отвечать на сообщения
Вы не можете редактировать свои сообщения
Вы не можете удалять свои сообщения
Вы не можете голосовать в опросах
Вы не можете прикреплять файлы к сообщениям
Вы не можете скачивать файлы