Алексей Лукин - PRO деньги (2017) торрент

Ответить на тему
 
Автор Сообщение

Prescious ®

Алексей Лукин | PRO деньги (2017) PCRec - Автор: Алексей Лукин
Жанр: Тренинг
Описание:
Авторский тренинг, основанный на опыте миллионеров, который позволит вам найти и реализовать личную стратегию богатства.
Наш тренинг - о том, как создать СВОЮ стратегию отношений с финансами.
Этот тренинг для вас, если вы:
-Постоянно ощущаете нехватку денег, хотя доходы растут
-Сожалеете о бесполезных покупках,которые принесли лишь мимолетные эмоции
-Не видите вариантов увеличения дохода кроме как «работать больше»
-Испытываете стресс от того, что деньги могут закончиться
-Не можете позволить себе то, что на самом деле хотите
Цель этого тренинга:
-Познакомить вас со стратегиями миллионеров и помочь создать ваш собственный путь к богатству и выйти на новый уровень доходов.
-Мы подробно разберем ваши установки и страхи относительно денег. Покажем, какие стратегии богатства есть и как создать свою.
-Дадим рабочие техники которые помогут вам понять, сколько денег вам на самом деле нужно и как создать мотивацию для их получения.

Продолжение описания:

Программа тренинга:
1 блок - Ограничивающие убеждения и финансовая пирамида.
Вы выявите установки, которые унаследовали или выработали сами, и поймете, как они мешают вам получать больше денег.
2 блок - Алгоритм финансового роста.
Вы узнаете, как подняться вверх по финансовой пирамиде, используя обходные пути и «чит-коды». Поймете, что мешает вам при переходе с одного уровня на другой и как преодолеть эти препятствия.
3 блок - Финансовая мотивация.
Что на самом деле мотивирует вас зарабатывать больше? Вы проанализируете текущие источники дохода и найдете свои сильные и слабые стороны.
4 блок - Финансовая стратегия.
Мы разберем 4 возможные стратегии роста ваших доходов. В результате вы выберете и построите свою стратегию и сформируете план её реализации.
ВИП-блок - Действующие миллионеры и успешные люди, достигшие своего состояния с помощью разных стратегий поделяться основными ошибками и «фишками», которые помогут вам быстрее подняться на вершину.
Продолжительность: 25:00:00
Качество видео: PCRec
Видео: AVC/H.264, 1280x720, ~1276 kbps
Аудио: AAC, 2 ch, 126 Kbps

MediaInfo:

Video
ID : 1
Format : AVC
Format/Info : Advanced Video Codec
Format profile : Main@L3.1
Format settings, CABAC : Yes
Format settings, ReFrames : 3 frames
Codec ID : avc1
Codec ID/Info : Advanced Video Coding
Duration : 1 h 9 min
Bit rate : 1 276 kb/s
Width : 1 280 pixels
Height : 720 pixels
Display aspect ratio : 16:9
Frame rate mode : Constant
Frame rate : 30.000 FPS
Color space : YUV
Chroma subsampling : 4:2:0
Bit depth : 8 bits
Scan type : Progressive
Bits/(Pixel*Frame) : 0.046
Stream size : 632 MiB (91%)
Color range : Limited
Color primaries : BT.709
Transfer characteristics : BT.709
Matrix coefficients : BT.709
Audio
ID : 2
Format : AAC
Format/Info : Advanced Audio Codec
Format profile : LC
Codec ID : 40
Duration : 1 h 9 min
Bit rate mode : Constant
Bit rate : 126 kb/s
Channel(s) : 2 channels
Channel positions : Front: L R
Sampling rate : 44.1 kHz
Frame rate : 43.066 FPS (1024 spf)
Compression mode : Lossy
Stream size : 62.2 MiB (9%)
Default : Yes
Alternate group : 1

Бонус:

-Интенсив Алгоритмы финансового роста - Найди свой путь к богатству
-Мышление предпринимателя
Скриншоты:
Скачать .torrent

Чтобы скачать торрент-файл

Алексей Лукин - PRO деньги (2017)

Вам нужно Авторизоваться на сайте под своим логином. Если у Вы ещё не зарегистрированы, тогда Вам нужно пройти Регистрацию


Показать сообщения:    
Ответить на тему

Скачать Алексей Лукин - PRO деньги (2017) торрент бесплатно. Отзывы, слив складчины.

Текущее время: Сегодня 09:23

Часовой пояс: GMT + 4



Вы не можете начинать темы
Вы не можете отвечать на сообщения
Вы не можете редактировать свои сообщения
Вы не можете удалять свои сообщения
Вы не можете голосовать в опросах
Вы не можете прикреплять файлы к сообщениям
Вы не можете скачивать файлы