Роман Аргашоков - Деньги есть всегда 5.0. Пакет Профи (2017) торрент

Ответить на тему
 
Автор Сообщение

Prescious ®

Роман Аргашоков | Деньги есть всегда 5.0. Пакет Профи (2017) PCRec - Автор: Роман Аргашоков
Жанр: Видеокурсы
Описание:
Роман Аргашоков научил финансовому планированию, увеличению доходов и инвестированию более 10 000 студентов платных мероприятий.
Содержание:
ЗАПИСИ ТЕОРИИ ТРЁХ СТУПЕНЕЙ «ДЕНЬГИ ЕСТЬ ВСЕГДА 5.0»
1.Личный финансовый план
2.Увеличение доходов в карьере и бизнесе
3.Надежные инвестиции под 25% в год

Продолжение описания:

+10 семинаров и тренингов:
- Избавление от кредитов
- СПИН-продажи
- Холодные звонки
- Увеличение доходов (2 шт)
- Финансы бизнеса
- Инвестиции 25% в год
- Семейный бюджет
- Секреты финансов
- Продающее резюме
Продолжительность: 104:06:16
Качество видео: PCRec
Видео: AVC/H.264, 1280x720, ~202 kbps
Аудио: AAC, 2 ch, 126 Kbps

MediaInfo:

Video
ID : 1
Format : AVC
Format/Info : Advanced Video Codec
Format profile : Main@L3.1
Format settings, CABAC : Yes
Format settings, ReFrames : 3 frames
Codec ID : avc1
Codec ID/Info : Advanced Video Coding
Duration : 1 h 30 min
Source duration : 1 h 30 min
Bit rate : 202 kb/s
Width : 1 280 pixels
Height : 720 pixels
Display aspect ratio : 16:9
Frame rate mode : Constant
Frame rate : 30.000 FPS
Standard : NTSC
Color space : YUV
Chroma subsampling : 4:2:0
Bit depth : 8 bits
Scan type : Progressive
Bits/(Pixel*Frame) : 0.007
Stream size : 131 MiB (61%)
Source stream size : 131 MiB (61%)
Language : English
Encoded date : UTC 2017-03-07 22:16:53
Tagged date : UTC 2017-03-07 22:16:53
Color range : Limited
Audio
ID : 2
Format : AAC
Format/Info : Advanced Audio Codec
Format profile : LC
Codec ID : 40
Duration : 1 h 30 min
Bit rate mode : Variable
Bit rate : 126 kb/s
Maximum bit rate : 480 kb/s
Channel(s) : 2 channels
Channel positions : Front: L R
Sampling rate : 44.1 kHz
Frame rate : 43.066 FPS (1024 spf)
Compression mode : Lossy
Stream size : 81.3 MiB (38%)
Language : English
Encoded date : UTC 2017-03-07 22:16:53
Tagged date : UTC 2017-03-07 22:16:53
Скриншоты:
Скачать .torrent

Чтобы скачать торрент-файл

Роман Аргашоков - Деньги есть всегда 5.0. Пакет Профи (2017)

Вам нужно Авторизоваться на сайте под своим логином. Если у Вы ещё не зарегистрированы, тогда Вам нужно пройти Регистрацию


Показать сообщения:    
Ответить на тему

Скачать Роман Аргашоков - Деньги есть всегда 5.0. Пакет Профи (2017) торрент бесплатно. Отзывы, слив складчины.

Текущее время: Сегодня 08:22

Часовой пояс: GMT + 4



Вы не можете начинать темы
Вы не можете отвечать на сообщения
Вы не можете редактировать свои сообщения
Вы не можете удалять свои сообщения
Вы не можете голосовать в опросах
Вы не можете прикреплять файлы к сообщениям
Вы не можете скачивать файлы