Сергей Ковалев - Семь шагов к успеху (2017) торрент

Ответить на тему
 
Автор Сообщение

Prescious ®

Сергей Ковалев | Семь шагов к успеху (2017) PCRec - Автор: Сергей Ковалев
Жанр: Семинар
Описание:
Семь шагов к успеху или работа с синдромом ВСЖ: воспрепятствования собственной жизни. О том, как открыть или восстановить в себе способности стать и быть здоровым; успешным во взаимоотношениях; любви и сексе; а также эффективным работником и материально благополучным человеком.
- Новый – отдельный и, увы, никак не входящий в общую программу – модуль системной психотерапии внутренних препятствий к успеху.
- Новая модель консультирования маркетинга.
- Новые психотехнологии и алгоритмы работы.

Продолжение описания:

Большинство говорит о своём успехе как о желательном или предположительном действии с применением частицы «бы»: эх, если бы.., хотелось бы.., я бы.. и так далее… Это «болезнь» нынешнего общества – стремление откладывать всё на потом.
Это нежелание двигаться здесь и сейчас.
Вот это мы и будем искоренять!
Ведь невозможно прийти куда-то К, пока не уйдёшь ОТ чего-то.
Этот семинар для всех, кто хочет быть успешным.
Новые модули нейропрограммирования, представленные на семинаре, станут также хорошим введением для всех тех, кто только начал изучать это направление.
А психологи, психотерапевты и коучи, озабоченные сопротивлением клиента к изменениям и их реализации в их жизни, получат дополнительные инструменты.
После семинара вы сможете чётко психотехнологично спланировать достижения в любой области жизнедеятельности.
Продолжительность: 06:00:00
Качество видео: PCRec
Видео: AVC/H.264, 804x452, ~478 kbps
Аудио: AAC, 2 ch, 126 Kbps

MediaInfo:

Video
ID : 1
Format : AVC
Format/Info : Advanced Video Codec
Format profile : Baseline@L3.1
Format settings, CABAC : No
Format settings, ReFrames : 3 frames
Codec ID : avc1
Codec ID/Info : Advanced Video Coding
Duration : 2 h 0 min
Bit rate : 455 kb/s
Width : 804 pixels
Height : 452 pixels
Display aspect ratio : 16:9
Frame rate mode : Variable
Frame rate : 30.000 FPS
Minimum frame rate : 29.990 FPS
Maximum frame rate : 30.010 FPS
Standard : NTSC
Color space : YUV
Chroma subsampling : 4:2:0
Bit depth : 8 bits
Scan type : Progressive
Bits/(Pixel*Frame) : 0.042
Stream size : 391 MiB (77%)
Language : English
Encoded date : UTC 2017-09-09 16:43:05
Tagged date : UTC 2017-09-09 16:43:05
Color range : Limited
Audio
ID : 2
Format : AAC
Format/Info : Advanced Audio Codec
Format profile : LC
Codec ID : 40
Duration : 2 h 0 min
Source duration : 2 h 0 min
Bit rate mode : Variable
Bit rate : 126 kb/s
Channel(s) : 2 channels
Channel positions : Front: L R
Sampling rate : 44.1 kHz
Frame rate : 43.066 FPS (1024 spf)
Compression mode : Lossy
Stream size : 108 MiB (21%)
Source stream size : 108 MiB (21%)
Language : English
Encoded date : UTC 2017-09-09 16:43:05
Tagged date : UTC 2017-09-09 16:43:05
mdhd_Duration : 7205887
Скриншоты:
Скачать .torrent

Чтобы скачать торрент-файл

Сергей Ковалев - Семь шагов к успеху (2017)

Вам нужно Авторизоваться на сайте под своим логином. Если у Вы ещё не зарегистрированы, тогда Вам нужно пройти Регистрацию


Показать сообщения:    
Ответить на тему

Скачать Сергей Ковалев - Семь шагов к успеху (2017) торрент бесплатно. Отзывы, слив складчины.

Текущее время: Сегодня 11:28

Часовой пояс: GMT + 4



Вы не можете начинать темы
Вы не можете отвечать на сообщения
Вы не можете редактировать свои сообщения
Вы не можете удалять свои сообщения
Вы не можете голосовать в опросах
Вы не можете прикреплять файлы к сообщениям
Вы не можете скачивать файлы