Колектив - 10 производственных ноу-хау технологий для малого бизнеса (2017) торрент

Ответить на тему
 
Автор Сообщение

Prescious ®

Колектив | 10 производственных ноу-хау технологий для малого бизнеса (2017) PCRec - Автор: Колектив
Жанр: Видеокурсы
Описание:
Знания, опыт и ноу-хау, применяемые в технологиях , были получены нами в течение нескольких лет разработок и отработки технологий.
ТЕХНОЛОГИЧЕСКИЙ ПАКЕТ Grava Glass FULL:
- Crocodile Technology 3D !!! Все модификации .
- AntikDecor.
- КЕРАМИН 3-D
- Металлизированное панно.
- Гипсо-Металл.
- Фотостеклянные изделия с Brilliant Crystal эффектом.
- Стекло Brilliant Crystal
- Cтекло GLASS COLOR
- БОНУС STONE DECOR
- БОНУС GLASS-DECO
- БОНУС Optik Product3
Продолжительность: 09:00:00
Качество видео: PCRec
Видео: AVC/H.264, 640x480-1920x1080, ~2148 Kbps
Аудио: AAC, 2 ch, 126 kbps

MediaInfo:

Video
ID : 1
Format : AVC
Format/Info : Advanced Video Codec
Format profile : Baseline@L5
Format settings, CABAC : No
Format settings, ReFrames : 3 frames
Format settings, GOP : M=1, N=125
Codec ID : avc1
Codec ID/Info : Advanced Video Coding
Duration : 23 min
Bit rate mode : Variable
Bit rate : 2 148 kb/s
Maximum bit rate : 2 397 kb/s
Width : 1 920 pixels
Height : 1 080 pixels
Display aspect ratio : 16:9
Frame rate mode : Constant
Frame rate : 25.000 FPS
Standard : PAL
Color space : YUV
Chroma subsampling : 4:2:0
Bit depth : 8 bits
Scan type : Progressive
Bits/(Pixel*Frame) : 0.041
Stream size : 355 MiB (94%)
Language : English
Encoded date : UTC 2016-07-27 18:55:19
Tagged date : UTC 2016-07-27 18:55:19
Color range : Limited
Audio
ID : 2
Format : AAC
Format/Info : Advanced Audio Codec
Format profile : LC
Codec ID : 40
Duration : 23 min
Bit rate mode : Variable
Bit rate : 126 kb/s
Maximum bit rate : 151 kb/s
Channel(s) : 2 channels
Channel positions : Front: L R
Sampling rate : 44.1 kHz
Frame rate : 43.066 FPS (1024 spf)
Compression mode : Lossy
Stream size : 20.8 MiB (6%)
Language : English
Encoded date : UTC 2016-07-27 18:55:19
Tagged date : UTC 2016-07-27 18:55:19
Скриншоты:
Скачать .torrent

Чтобы скачать торрент-файл

Колектив - 10 производственных ноу-хау технологий для малого бизнеса (2017)

Вам нужно Авторизоваться на сайте под своим логином. Если у Вы ещё не зарегистрированы, тогда Вам нужно пройти Регистрацию


Показать сообщения:    
Ответить на тему

Скачать Колектив - 10 производственных ноу-хау технологий для малого бизнеса (2017) торрент бесплатно. Отзывы, слив складчины.

Текущее время: Сегодня 18:34

Часовой пояс: GMT + 4



Вы не можете начинать темы
Вы не можете отвечать на сообщения
Вы не можете редактировать свои сообщения
Вы не можете удалять свои сообщения
Вы не можете голосовать в опросах
Вы не можете прикреплять файлы к сообщениям
Вы не можете скачивать файлы