Ирина Белозёрская - Секреты «Альфы»: Большие деньги навсегда (2016) торрент

Ответить на тему
 
Автор Сообщение

Prescious ®

Ирина Белозёрская | Секреты «Альфы»: Большие деньги навсегда (2016) PCRec - Автор: Ирина Белозёрская
Жанр: Тренинг
Описание:
Во-первых, мы будем привлекать богатство играючи: легко и с удовольствием.
Во-вторых, ничего подобного в интернете не было - несмотря на массу тренингов по привлечению денег. Потому что взять человека и привести его в состояние успеха и процветания под силу лишь профессиональному слиперу. Для этого надо СЛЫШАТЬ, как «звучит» каждый - и УМЕТЬ дотянуть его до нужного состояния. Обычные тренеры не умеют... Рассказать - пожалуйста. Передать состояние - увольте...
Программа вебинара:
1. День. Почему нет денег? И как альфа-состояние делает нас богатеями.
-Вы узнаете рецепт успеха, который пуще жизни берегут многие миллионеры и все миллиардеры. И поймёте, почему они очень редко следуют собственным советам, которые дают в книжках и интервью
-Вы узнаете, как получать знаки и подсказки от своих самых богатых предков вплоть до десятого колена. А богачи в роду были у каждого. И толку от их советов будет гораздо больше, чем от любых книжек и рецептов успеха
-Узнаете секрет вещих снов, которые покажут, как деньги приумножить, а чего следует избегать
-Сделаете секретную альфа-технику с одним маленьким нюансом, который притянет деньги в ваш кошелёк
-Наполнитесь энергией победы и триумфа, которая сметёт любые преграды с вашего пути к богатству
-Получите специальное домашнее задание (только для тех, кто хочет зарабатывать минимум в 3-5 раз больше нынешнего)

Продолжение описания:

2. День. Вчера ученик – сегодня волшебник.
-На второй день марафона вы сделаете поддержку богатых предков и радость побед своим ежедневным сопровождением
-Вы пройдёте ударный коктейль сильнейших альфа-техник, который подарит вам тончайший нюх на деньги
-Научитесь извлекать выгоду отовсюду, видеть все возможности заработать, вложить и приумножить свой капитал. И отбирать из них самые надёжные и прибыльные
-В этот день вы сделаете серьезные, и вместе с тем простые шаги, которые неминуемо приносят богатство
-Домашнее задание – подборка простых упражнений, которая сделает вас липкой и вкусной приманкой для денег
3. День.Богато жить не запретишь.
-Вы освоите три закона миллионеров, о которых они не рассказывают даже своим жёнам
-Научитесь входить в изменённое состояние сознания богатого человека. То самое, в котором приходят гениальные идеи бизнеса, заключаются сделки века и даже из проблем удаётся выжать деньги
-Узнаете секрет, который не позволит вашему денежному потоку пересохнуть. С ним вы всегда будете на коне
-Узнаете, как загадывать желания так, чтобы они автоматически сбывались и приносили вам радость и деньги
Ведущая: Ирина Белозёрская
-Профессиональный слипер-гипнолог с 30-летним стажем (обладает способностью дистанционно подключаться к сознанию человека и передавать ему ресурсные состояния)
-Много лет работала в закрытых лабораториях КГБ. Регулярно присутствовала на международных переговорах, где поддерживала необходимое ресурсное состояние у своих “подопечных”. А этих подопечных вся страна видела по телевизору каждый день.
-Ирина — мастер состояний. Она чувствует каждого человека, с которым имеет дело также, как мать чувствует своего ребенка, на любом расстоянии
-Выполняла спец.задания силовых структур (как в «Битве экстрасенсов», только в реальных условиях повышенной опасности)
-Более 17 раз находилась на грани жизни и смерти (и даже за гранью); выжила благодаря Альфа-состоянию
-Среди клиентов - персоны мирового значения (олимпийские чемпионы, члены правительства, крупные бизнесмены, звезды кино и шоу-бизнеса)
-Создатель Института развития сверхвозможностей человека
-Провела более 100 тренингов по развитию феноменальных возможностей у обычных людей, и продолжает это делать.
Продолжительность: 06:04:17
Качество видео: PCRec
Видео: AVC/H.264, 1280x720, ~529 kbps
Аудио: AAC, 1 ch, 235 Kbps

MediaInfo:

Video
ID : 1
Format : AVC
Format/Info : Advanced Video Codec
Format profile : High@L3.2
Format settings, CABAC : Yes
Format settings, ReFrames : 5 frames
Codec ID : avc1
Codec ID/Info : Advanced Video Coding
Duration : 2 h 0 min
Bit rate : 529 kb/s
Width : 1 280 pixels
Height : 720 pixels
Display aspect ratio : 16:9
Frame rate mode : Constant
Frame rate : 29.970 (30000/1001) FPS
Color space : YUV
Chroma subsampling : 4:2:0
Bit depth : 8 bits
Scan type : Progressive
Bits/(Pixel*Frame) : 0.019
Stream size : 457 MiB (69%)
Writing library : x264 core 148 r11 a01e339
Encoding settings : cabac=1 / ref=5 / deblock=1:0:0 / analyse=0x3:0x113 / me=umh / subme=8 / psy=1 / psy_rd=1.00:0.00 / mixed_ref=1 / me_range=16 / chroma_me=1 / trellis=1 / 8x8dct=1 / cqm=0 / deadzone=21,11 / fast_pskip=1 / chroma_qp_offset=-2 / threads=22 / lookahead_threads=3 / sliced_threads=0 / nr=0 / decimate=1 / interlaced=0 / bluray_compat=0 / stitchable=1 / constrained_intra=0 / bframes=3 / b_pyramid=2 / b_adapt=2 / b_bias=0 / direct=3 / weightb=1 / open_gop=0 / weightp=2 / keyint=infinite / keyint_min=29 / scenecut=40 / intra_refresh=0 / rc_lookahead=50 / rc=crf / mbtree=1 / crf=20.0 / qcomp=0.60 / qpmin=5 / qpmax=69 / qpstep=4 / vbv_maxrate=2750 / vbv_bufsize=7500 / crf_max=0.0 / nal_hrd=none / filler=0 / ip_ratio=1.40 / aq=1:1.00
Encoded date : UTC 2016-04-05 13:27:03
Tagged date : UTC 2016-04-05 13:27:03
Color range : Limited
Color primaries : BT.709
Transfer characteristics : BT.709
Matrix coefficients : BT.709
Audio
ID : 2
Format : AAC
Format/Info : Advanced Audio Codec
Format profile : LC
Codec ID : 40
Duration : 2 h 0 min
Bit rate mode : Variable
Bit rate : 235 kb/s
Channel(s) : 2 channels
Channel positions : Front: L R
Sampling rate : 48.0 kHz
Frame rate : 46.875 FPS (1024 spf)
Compression mode : Lossy
Stream size : 203 MiB (31%)
Encoded date : UTC 2016-04-05 13:27:03
Tagged date : UTC 2016-04-05 13:27:03
Скриншоты:
Скачать .torrent

Чтобы скачать торрент-файл

Ирина Белозёрская - Секреты «Альфы»: Большие деньги навсегда (2016)

Вам нужно Авторизоваться на сайте под своим логином. Если у Вы ещё не зарегистрированы, тогда Вам нужно пройти Регистрацию


Показать сообщения:    
Ответить на тему

Скачать Ирина Белозёрская - Секреты «Альфы»: Большие деньги навсегда (2016) торрент бесплатно. Отзывы, слив складчины.

Текущее время: Сегодня 09:14

Часовой пояс: GMT + 4



Вы не можете начинать темы
Вы не можете отвечать на сообщения
Вы не можете редактировать свои сообщения
Вы не можете удалять свои сообщения
Вы не можете голосовать в опросах
Вы не можете прикреплять файлы к сообщениям
Вы не можете скачивать файлы