Евгений Демьянов - Что делать, если всё можешь, но не получается как хочешь? (2017) торрент

Ответить на тему
 
Автор Сообщение

Prescious ®

Евгений Демьянов | Что делать, если всё можешь, но не получается как хочешь? (2017) PCRec - Автор: Евгений Демьянов
Жанр: Тренинг
Описание:
Пропадает желание действовать, перегораешь на половине пути к целям?.. А что если найти причину этого сопротивления и избавиться от него? Именно это я и предлагаю сделать!
Коротко и по делу.
Порой откладываешь то, что запланировал, так?
А как на счёт постоянной болтовни в голове, лишних мыслей?
Бывает ощущение, что занимаешься ерундой вместо действий ведущих к результатам?
А страхи, что не дают приступить к нужным действиям?..
Бонус: Как стать энергичнее и все успевать.
Мастер-класс раскрывает оригинальный подход к решению проблем усталости и эмоционального напряжения. Описываемая система подскажет "слабые места", на которые многие тратят силы, предложит несколько нестандартных, но очень важных способов восстановления и накопления сил.
Продолжительность: 17:00:00
Качество видео: PCRec
Видео: AVC/H.264, 1280x720, ~50,8 kbps
Аудио: AAC, 2 ch, 126 Kbps

MediaInfo:

Video
ID : 1
Format : AVC
Format/Info : Advanced Video Codec
Format profile : Main@L3.1
Format settings, CABAC : Yes
Format settings, ReFrames : 3 frames
Codec ID : avc1
Codec ID/Info : Advanced Video Coding
Duration : 51 min
Bit rate : 50.8 kb/s
Width : 1 280 pixels
Height : 720 pixels
Display aspect ratio : 16:9
Frame rate mode : Constant
Frame rate : 30.000 FPS
Color space : YUV
Chroma subsampling : 4:2:0
Bit depth : 8 bits
Scan type : Progressive
Bits/(Pixel*Frame) : 0.002
Stream size : 18.9 MiB (28%)
Title : ISO Media file produced by Google Inc.
Encoded date : UTC 2017-08-08 16:57:26
Tagged date : UTC 2017-08-08 16:57:26
Color range : Limited
Color primaries : BT.709
Transfer characteristics : BT.709
Matrix coefficients : BT.709
Audio
ID : 2
Format : AAC
Format/Info : Advanced Audio Codec
Format profile : LC
Codec ID : 40
Duration : 51 min
Source duration : 51 min
Bit rate mode : Variable
Bit rate : 126 kb/s
Channel(s) : 2 channels
Channel positions : Front: L R
Sampling rate : 44.1 kHz
Frame rate : 43.066 FPS (1024 spf)
Compression mode : Lossy
Stream size : 46.6 MiB (70%)
Source stream size : 46.6 MiB (70%)
Title : ISO Media file produced by Google Inc.
Encoded date : UTC 2017-08-08 16:57:26
Tagged date : UTC 2017-08-08 16:57:26
Скриншоты:
Скачать .torrent

Чтобы скачать торрент-файл

Евгений Демьянов - Что делать, если всё можешь, но не получается как хочешь? (2017)

Вам нужно Авторизоваться на сайте под своим логином. Если у Вы ещё не зарегистрированы, тогда Вам нужно пройти Регистрацию


Показать сообщения:    
Ответить на тему

Скачать Евгений Демьянов - Что делать, если всё можешь, но не получается как хочешь? (2017) торрент бесплатно. Отзывы, слив складчины.

Текущее время: Сегодня 06:43

Часовой пояс: GMT + 4



Вы не можете начинать темы
Вы не можете отвечать на сообщения
Вы не можете редактировать свои сообщения
Вы не можете удалять свои сообщения
Вы не можете голосовать в опросах
Вы не можете прикреплять файлы к сообщениям
Вы не можете скачивать файлы