CGMA, Vidya Vinnakota др. - Intro to Production Modeling (2019) торрент

Ответить на тему
 
Автор Сообщение

Prescious ®

CGMA, Vidya Vinnakota и др. | Intro to Production Modeling (2019) PCRec [En, Ru] - Автор: Vidya Vinnakota, David Mooy
Производство: CGMA
Жанр: Создание видео
Описание:
Цель этого курса показать вам все, что нужно знать, для того чтобы профессионально преуспеть в качестве 3D-моделлера. В этом уроке вы узнаете как быть эффективным и быстрым 3D-художником. Одна из главных сложностей, с которыми встречается джуниор-художник при работе в крупной компании, это как влиться в эту рабочую обстановку. В этом курсе вы узнаете, чего ждать от продакшена и как работать с командой. Вы будете создавать продакшн-реди модели с помощью инструментов, техник и практик, показанных в этом курсе. Их можно применить к индустриям игр, фильмов и анимации. Также вы будете создавать проп по концепту с нуля, а закончим мы готовым рилом нашего портфолио.
Продолжительность: 10:19:00
Качество видео: PCRec
Язык озвучки: Английский, Русский
Видео: AVC/H.264, 1280x720, ~462 kbps
Аудио: AAC, 2 ch, 127 kbps
Аудио 2: MP3, 2 ch, 192 kbps (отдельным файлом)

MediaInfo:

General
Complete name : K:\[CGMA 3D] - Intro to Production Modeling [ENG-RUS]\w1\Intro to Production Modeling week 1 - Classroom - CG Master Academy_2.mp4
Format : MPEG-4
Format profile : Base Media
Codec ID : isom (isom/iso2/avc1/mp41)
File size : 307 MiB
Duration : 1 h 11 min
Overall bit rate mode : Variable
Overall bit rate : 598 kb/s
Writing application : Lavf56.40.101
Video
ID : 1
Format : AVC
Format/Info : Advanced Video Codec
Format profile : High@L3.1
Format settings : CABAC / 4 Ref Frames
Format settings, CABAC : Yes
Format settings, Reference fra : 4 frames
Codec ID : avc1
Codec ID/Info : Advanced Video Coding
Duration : 1 h 11 min
Bit rate : 462 kb/s
Width : 1 226 pixels
Height : 720 pixels
Display aspect ratio : 1.703
Frame rate mode : Constant
Frame rate : 30.000 FPS
Color space : YUV
Chroma subsampling : 4:2:0
Bit depth : 8 bits
Scan type : Progressive
Bits/(Pixel*Frame) : 0.017
Stream size : 237 MiB (77%)
Writing library : x264 core 148 r2643 5c65704
Encoding settings : cabac=1 / ref=3 / deblock=1:0:0 / analyse=0x3:0x113 / me=hex / subme=7 / psy=1 / psy_rd=1.00:0.00 / mixed_ref=1 / me_range=16 / chroma_me=1 / trellis=1 / 8x8dct=1 / cqm=0 / deadzone=21,11 / fast_pskip=1 / chroma_qp_offset=-2 / threads=22 / lookahead_threads=3 / sliced_threads=0 / nr=0 / decimate=1 / interlaced=0 / bluray_compat=0 / constrained_intra=0 / bframes=3 / b_pyramid=2 / b_adapt=1 / b_bias=0 / direct=1 / weightb=1 / open_gop=0 / weightp=2 / keyint=250 / keyint_min=25 / scenecut=40 / intra_refresh=0 / rc_lookahead=40 / rc=crf / mbtree=1 / crf=23.0 / qcomp=0.60 / qpmin=0 / qpmax=69 / qpstep=4 / ip_ratio=1.40 / aq=1:1.00
Codec configuration box : avcC
Audio
ID : 2
Format : AAC LC
Format/Info : Advanced Audio Codec Low Complexity
Codec ID : mp4a-40-2
Duration : 1 h 11 min
Bit rate mode : Variable
Bit rate : 128 kb/s
Channel(s) : 2 channels
Channel layout : L R
Sampling rate : 48.0 kHz
Frame rate : 46.875 FPS (1024 SPF)
Compression mode : Lossy
Stream size : 65.2 MiB (21%)
Language : English
Default : Yes
Alternate group : 1

Дополнительная информация:

Программное обеспечение: Autodesk Maya
Файлы примеров: Есть
Скриншоты:
Скачать .torrent

Чтобы скачать торрент-файл

CGMA, Vidya Vinnakota др. - Intro to Production Modeling (2019)

Вам нужно Авторизоваться на сайте под своим логином. Если у Вы ещё не зарегистрированы, тогда Вам нужно пройти Регистрацию


Показать сообщения:    
Ответить на тему

Скачать CGMA, Vidya Vinnakota др. - Intro to Production Modeling (2019) торрент бесплатно. Отзывы, слив складчины.

Текущее время: Сегодня 11:20

Часовой пояс: GMT + 4



Вы не можете начинать темы
Вы не можете отвечать на сообщения
Вы не можете редактировать свои сообщения
Вы не можете удалять свои сообщения
Вы не можете голосовать в опросах
Вы не можете прикреплять файлы к сообщениям
Вы не можете скачивать файлы