Ben Tate - An Introduction To UVMapping In 3d Studio Max Using The Unwrap UVW Modifier (2012) торрент

Ответить на тему
 
Автор Сообщение

Prescious ®

Ben Tate | An Introduction To UVMapping In 3d Studio Max Using The Unwrap UVW Modifier (2012) PCRec [En, Ru] - Автор: Ben Tate
Производство: Cg.tutsplus
Жанр: Создание видео
Описание:
И так, UVMapping... вы ненавидите это, я ненавижу это. Но, к несчастью, это необходимый шаг в процессе завершения большинства CG проектов. В этом обучающем курсе мы рассмотрим создание UV развертки используя модификатор "Unwrap UVW" в 3ds Max, а также обсудим что такое UV маппинг, различные пути подружиться с ним и почему это действительно важно.

Продолжение описания:

В первой части мы рассмотрим несколько вариантов развертки многих примитивов, которые найдем в 3ds Max, рассмотрим как вручную создать швы и как вручную свести к минимуму эффекты растяжения и деформации.
Во второй части этого курса мы применим на практике знания полученные в первой части и наложим развертку на всю сцену. Мы узнаем, как поместить несколько обьектов на одну развертку и подготовить ее к генерации карт и текстурированию. В общем, я считаю, что этот курс прольет свет на то, что считается камнем преткновения для всех новичков. Также мы рассмотрим некоторые методы развертки высокополигональной геометрии и как мы можем минимизировать растяжение и деформацию текстуры.
Продолжительность: 03:41:00
Качество видео: PCRec
Язык озвучки: Английский, Русский
Видео: AVC/H.264, 1280x720, ~269 kbps
Аудио: AAC, 2 ch, 92 kbps
Аудио 2: MP3, 2 ch, 320 kbps (отдельным файлом)

MediaInfo:

General
Complete name : K:\[Tutsplus] An Introduction To UVMapping In 3d Studio Max Using The Unwrap UVW Modifier [ENG-RUS]\UVMappingWithTheUnwrapModifer_Part1.m4v
Format : MPEG-4
Codec ID : M4V (isom/iso2/avc1/M4A /M4V /mp42)
File size : 33.1 MiB
Duration : 12 min 41 s
Overall bit rate mode : Variable
Overall bit rate : 364 kb/s
Encoded date : UTC 1970-01-01 00:00:00
Tagged date : UTC 1970-01-01 00:00:00
Writing application : Lavf52.62.0
Video
ID : 1
Format : AVC
Format/Info : Advanced Video Codec
Format profile : High@L3.1
Format settings : CABAC / 4 Ref Frames
Format settings, CABAC : Yes
Format settings, Reference fra : 4 frames
Codec ID : avc1
Codec ID/Info : Advanced Video Coding
Duration : 12 min 41 s
Bit rate : 270 kb/s
Width : 1 280 pixels
Height : 720 pixels
Display aspect ratio : 16:9
Frame rate mode : Constant
Frame rate : 29.970 (29970/1000) FPS
Color space : YUV
Chroma subsampling : 4:2:0
Bit depth : 8 bits
Scan type : Progressive
Bits/(Pixel*Frame) : 0.010
Stream size : 24.5 MiB (74%)
Writing library : x264 core 98 r1629 2e81ce1
Encoding settings : cabac=1 / ref=4 / deblock=1:0:0 / analyse=0x3:0x113 / me=umh / subme=8 / psy=1 / psy_rd=1.00:0.00 / mixed_ref=1 / me_range=16 / chroma_me=1 / trellis=1 / 8x8dct=1 / cqm=0 / deadzone=21,11 / fast_pskip=1 / chroma_qp_offset=-2 / threads=12 / sliced_threads=0 / nr=0 / decimate=1 / interlaced=0 / constrained_intra=0 / bframes=3 / b_pyramid=0 / b_adapt=2 / b_bias=0 / direct=3 / weightb=1 / weightp=2 / keyint=250 / keyint_min=25 / scenecut=40 / intra_refresh=0 / rc_lookahead=40 / rc=crf / mbtree=1 / crf=22.0 / qcomp=0.60 / qpmin=10 / qpmax=51 / qpstep=4 / ip_ratio=1.41 / aq=1:1.00
Language : English
Encoded date : UTC 1970-01-01 00:00:00
Tagged date : UTC 2012-02-24 13:18:38
Codec configuration box : avcC
Audio
ID : 2
Format : AAC LC
Format/Info : Advanced Audio Codec Low Complexity
Codec ID : mp4a-40-2
Duration : 12 min 41 s
Bit rate mode : Variable
Bit rate : 92.1 kb/s
Channel(s) : 2 channels
Channel layout : L R
Sampling rate : 48.0 kHz
Frame rate : 46.875 FPS (1024 SPF)
Compression mode : Lossy
Stream size : 8.36 MiB (25%)
Language : English
Encoded date : UTC 1970-01-01 00:00:00
Tagged date : UTC 2012-02-24 13:18:38

Дополнительная информация:

Программное обеспечение: 3ds Max
Файлы примеров: Есть
Скриншоты:
Скачать .torrent

Чтобы скачать торрент-файл

Ben Tate - An Introduction To UVMapping In 3d Studio Max Using The Unwrap UVW Modifier (2012)

Вам нужно Авторизоваться на сайте под своим логином. Если у Вы ещё не зарегистрированы, тогда Вам нужно пройти Регистрацию


Показать сообщения:    
Ответить на тему

Скачать Ben Tate - An Introduction To UVMapping In 3d Studio Max Using The Unwrap UVW Modifier (2012) торрент бесплатно. Отзывы, слив складчины.

Текущее время: Сегодня 07:45

Часовой пояс: GMT + 4



Вы не можете начинать темы
Вы не можете отвечать на сообщения
Вы не можете редактировать свои сообщения
Вы не можете удалять свои сообщения
Вы не можете голосовать в опросах
Вы не можете прикреплять файлы к сообщениям
Вы не можете скачивать файлы