Рачинский Михаил - 3D Моделирование ювелирных изделий в Blender 2.66 (2013) торрент

Ответить на тему
 
Автор Сообщение

Prescious ®

Рачинский Михаил | 3D Моделирование ювелирных изделий в Blender 2.66 (2013) PCRec - Автор: Рачинский Михаил
Производство: jewelcourses.com
Жанр: Создание видео
Описание:
Данный курс не использует существующие учебные пособия, это полностью уникальный курс основанный на личном опыте автора в ювелирном дизайне и преподавании. В течении курса вы научитесь пользоваться пакетом 3D моделирования Blender, изучите теорию и практику не только 3D но и ювелирного дела. Узнаете все этапы построения изделия начиная от идеи и заканчивая выращиванием восковой модели на 3D принтере. По окончании курса вы сможете создавать собственные 3D модели ювелирных изделий готовые для 3D печати и отвечающие всем необходимым технологическим требованиям ювелирного производства.
Продолжительность: 21:00:47
Качество видео: PCRec
Видео: AVC/H.264,1280x720-1920x1080 , ~1112 kbps
Аудио: AAC, 2 ch, 128 kbps

MediaInfo:

General
Complete name : K:\JewelCourses - 3D Моделирование ювелирных изделий в Blender 2.66\Урок 01 Знакомство с Blender\Урок 1 0. Ознакомление с курсом.mp4
Format : MPEG-4
Format profile : Base Media
Codec ID : isom (isom/iso2/avc1/mp41)
File size : 14.9 MiB
Duration : 1 min 39 s
Overall bit rate : 1 250 kb/s
Writing application : Lavf55.19.104
Video
ID : 1
Format : AVC
Format/Info : Advanced Video Codec
Format profile : High@L4
Format settings : 4 Ref Frames
Format settings, CABAC : No
Format settings, Reference fra : 4 frames
Format settings, GOP : M=4, N=18
Codec ID : avc1
Codec ID/Info : Advanced Video Coding
Duration : 1 min 39 s
Bit rate : 1 113 kb/s
Width : 1 920 pixels
Height : 1 080 pixels
Display aspect ratio : 16:9
Frame rate mode : Constant
Frame rate : 30.000 FPS
Color space : YUV
Chroma subsampling : 4:2:0
Bit depth : 8 bits
Scan type : Progressive
Bits/(Pixel*Frame) : 0.018
Stream size : 13.3 MiB (89%)
Writing library : x264 core 120
Encoding settings : cabac=0 / ref=2 / deblock=1:0:0 / analyse=0x3:0x100 / me=dia / subme=6 / psy=1 / psy_rd=1.00:0.00 / mixed_ref=1 / me_range=16 / chroma_me=1 / trellis=0 / 8x8dct=1 / cqm=0 / deadzone=21,11 / fast_pskip=1 / chroma_qp_offset=-2 / threads=1 / sliced_threads=0 / nr=0 / decimate=1 / interlaced=0 / bluray_compat=0 / constrained_intra=0 / bframes=3 / b_pyramid=2 / b_adapt=1 / b_bias=0 / direct=1 / weightb=1 / open_gop=1 / weightp=2 / keyint=18 / keyint_min=10 / scenecut=40 / intra_refresh=0 / rc_lookahead=18 / rc=crf / mbtree=1 / crf=23.0 / qcomp=0.60 / qpmin=10 / qpmax=51 / qpstep=4 / ip_ratio=1.41 / aq=1:1.00
Codec configuration box : avcC
Audio
ID : 2
Format : AAC LC
Format/Info : Advanced Audio Codec Low Complexity
Codec ID : mp4a-40-2
Duration : 1 min 39 s
Bit rate mode : Constant
Bit rate : 129 kb/s
Channel(s) : 2 channels
Channel layout : L R
Sampling rate : 44.1 kHz
Frame rate : 43.066 FPS (1024 SPF)
Compression mode : Lossy
Stream size : 1.53 MiB (10%)
Default : Yes
Alternate group : 1

Дополнительная информация:

Программное обеспечение: Blender 2.66
Файлы примеров: Есть
На кого рассчитан курс: На всех желающих обучиться искусству ювелирного 3D моделирования.

Программа курса:

Урок 1: Знакомство с Blender
Урок 2: Типы объектов и иерархия сцены
Урок 3: Mesh геометрия, моделирование плоской шинки кольца
Урок 4: Кривые их параметры и типы
Урок 5: Стек модификаторов, моделирование простого обручального кольца
Урок 6: Моделирование кольца с узорами
Урок 7: Раскидка камней по дорожке
Урок 8: Раскидка камней по пути
Урок 9: Моделирование кольца с обсыпкой
Урок 10: Модификаторы и объект Text
Урок 11: Способы раскидки камней по сложным поверхностям
Урок 12: Виды камней и способы их закрепки
Урок 13: Моделирование легковесного кольца
Урок 14: Non manifold геометрия и способы её «лечения»
Урок 15: Моделирование перстня
Урок 16: Испытательная работа
Урок 17: Испытательная работа
Урок 18: Организация проекта
Урок 19: Оптимизация проекта
Урок 20: О моделировании серёжек
Урок 21: Технология ювелирной продукции
Урок 22: Самостоятельный проект
Скриншоты:
Скачать .torrent

Чтобы скачать торрент-файл

Рачинский Михаил - 3D Моделирование ювелирных изделий в Blender 2.66 (2013)

Вам нужно Авторизоваться на сайте под своим логином. Если у Вы ещё не зарегистрированы, тогда Вам нужно пройти Регистрацию


Показать сообщения:    
Ответить на тему

Скачать Рачинский Михаил - 3D Моделирование ювелирных изделий в Blender 2.66 (2013) торрент бесплатно. Отзывы, слив складчины.

Текущее время: Сегодня 08:59

Часовой пояс: GMT + 4



Вы не можете начинать темы
Вы не можете отвечать на сообщения
Вы не можете редактировать свои сообщения
Вы не можете удалять свои сообщения
Вы не можете голосовать в опросах
Вы не можете прикреплять файлы к сообщениям
Вы не можете скачивать файлы