Федоренко Павел - Счастливая жизнь без панических атак и ВСД (2012) торрент

Ответить на тему
 
Автор Сообщение

Prescious ®

Федоренко Павел | Счастливая жизнь без панических атак и ВСД (2012) PCRec - Автор: Федоренко Павел
Жанр: Видеокурсы
Описание:
После прохождения курса Вы узнаете, как:
-Планировать отпуск или путешествие без страха и тревоги.
-Быть уверенным и чувствовать себя в безопасности при выходе из дома.
-Чувствовать, что ваше тело абсолютно здорово.
-Не бояться, что возможно прийдется оставить какие-либо дела на полпути из за страха возникновения паники.
-Возможность заниматься повседневными делами без переживаний и волнения.
-Общаться с людьми и выступать на публике без страха.
-Чувствовать, что теперь вы контролируете ПА, а не она вас.
-Чувствовать уверенность, летая на самолете, и путешествуя на поезде .
-Избежать ночных ПА и беспокойства, которые раньше были у вас.
-Делать то, что вы любите, без страха возникновения ПА, будь то восхождение в горы или подводное плавание.
-Пропадет чувство не реальности происходящего.
-Свобода от тревожных мыслей, которые сейчас заполняют ваш ум.

Продолжение описания:

-Получите ясность ума, а также спокойные мысли и чувства.
-Будете просыпаться утром уверенным и свободным от мыслей о том, что может что-то произойти плохое
-Вернется возможность делать то, что вы боялись делать из за тревоги.
-Друзья и семья удивятся каким спокойным и гармоничным вы стали
-Вы будете наслаждаться новым увлечениями и удивительными возможностями, которые были недоступны в связи с тревогой
-Вместо того чтобы жить в ежедневном ожидании следующей атаки и беспокойства, вы научитесь жить новой бесстрашной жизнью
-Сможете полноценно жить и заниматься спортом!
Продолжительность: 04:00:00
Качество видео: PCRec
Видео: AVC/H.264, 720X576-1280х720, ~2995 kbps
Аудио: AAC, 2 ch, 192 kbps

MediaInfo:

Video
Format : VP6
Codec ID : 4
Duration : 5 min
Bit rate : 4 500 kb/s
Width : 1 280 pixels
Height : 720 pixels
Display aspect ratio : 16:9
Frame rate mode : Constant
Frame rate : 25.000 FPS
Bit depth : 8 bits
Bits/(Pixel*Frame) : 0.195
Stream size : 174 MiB (95%)
Audio
Format : MPEG Audio
Format version : Version 1
Format profile : Layer 3
Mode : Joint stereo
Mode extension : MS Stereo
Codec ID : 2
Codec ID/Hint : MP3
Duration : 5 min
Bit rate mode : Constant
Bit rate : 128 kb/s
Channel(s) : 2 channels
Sampling rate : 44.1 kHz
Compression mode : Lossy
Stream size : 4.96 MiB (3%)
Скриншоты:
Скачать .torrent

Чтобы скачать торрент-файл

Федоренко Павел - Счастливая жизнь без панических атак и ВСД (2012)

Вам нужно Авторизоваться на сайте под своим логином. Если у Вы ещё не зарегистрированы, тогда Вам нужно пройти Регистрацию


Показать сообщения:    
Ответить на тему

Скачать Федоренко Павел - Счастливая жизнь без панических атак и ВСД (2012) торрент бесплатно. Отзывы, слив складчины.

Текущее время: Сегодня 08:17

Часовой пояс: GMT + 4



Вы не можете начинать темы
Вы не можете отвечать на сообщения
Вы не можете редактировать свои сообщения
Вы не можете удалять свои сообщения
Вы не можете голосовать в опросах
Вы не можете прикреплять файлы к сообщениям
Вы не можете скачивать файлы