SkillFactory - Deep Learning и Нейронные сети (2019) торрент

Ответить на тему
 
Автор Сообщение

Prescious ®

SkillFactory | Deep Learning и Нейронные сети (2019) WEB-DL - Автор: SkillFactory
Жанр: Машинное обучение, нейросети
Описание:
Вы сможете пройти этот курс, если у вас есть базовое понимание машинного обучения и знание языка Python. В рамках курса вы пройдете полный путь от аренды GPU-сервера, который подходит для Deep Learning, вплоть до создания полноценной рабочей модели для компьютерного зрения, анализа естественного языка и рекомендательных систем.Курс познакомит с основными библиотеками для Deep Learning, такими как TensorFlow, Keras и другими.
Продолжительность: 11:38:28
Качество видео: WEB-DL
Видео: AVC/H.264, 1920x1080, ~1861 Kbps
Аудио: AAC, 2 ch, 137 Kbps

MediaInfo:

Общее
Полное имя : C:\Users\mosich.vv\Desktop\Deep Learning и Нейронные сети\Модуль 1. Введение в нейронные сети Введение\DL_1 модуль_1 Введение.mp4
Формат : MPEG-4
Профиль формата : Base Media / Version 2
Идентификатор кодека : mp42 (mp42/mp41/isom/avc1)
Размер файла : 9,57 Мбайт
Продолжительность : 37 с. 973 мс.
Режим общего битрейта : Переменный
Общий поток : 2 114 Кбит/сек
Дата кодирования : UTC 2019-02-14 11:39:35
Дата пометки : UTC 2019-02-14 11:39:35
Видео
Идентификатор : 1
Формат : AVC
Формат/Информация : Advanced Video Codec
Профиль формата : High@L4.2
Настройки формата : CABAC / 5 Ref Frames
Параметр CABAC формата : Да
Параметр RefFrames формата : 5 кадров
Идентификатор кодека : avc1
Идентификатор кодека/Информация : Advanced Video Coding
Продолжительность : 37 с. 960 мс.
Битрейт : 1 971 Кбит/сек
Ширина : 1 920 пикселей
Высота : 1 080 пикселей
Соотношение сторон : 16:9
Режим частоты кадров : Постоянный
Частота кадров : 50,000 кадров/сек
Цветовое пространство : YUV
Субдискретизация насыщенности : 4:2:0
Битовая глубина : 8 бит
Тип развёртки : Прогрессивная
Бит/(Пиксели*Кадры) : 0.019
Размер потока : 8,92 Мбайт (93%)
Библиотека кодирования : x264 core 157 r10 545de2f
Настройки программы : cabac=1 / ref=5 / deblock=1:0:0 / analyse=0x3:0x113 / me=hex / subme=8 / psy=1 / psy_rd=1.00:0.00 / mixed_ref=1 / me_range=16 / chroma_me=1 / trellis=2 / 8x8dct=1 / cqm=0 / deadzone=21,11 / fast_pskip=1 / chroma_qp_offset=-2 / threads=34 / lookahead_threads=5 / sliced_threads=0 / nr=0 / decimate=1 / interlaced=0 / bluray_compat=0 / stitchable=1 / constrained_intra=0 / bframes=3 / b_pyramid=2 / b_adapt=2 / b_bias=0 / direct=3 / weightb=1 / open_gop=0 / weightp=2 / keyint=infinite / keyint_min=50 / scenecut=40 / intra_refresh=0 / rc_lookahead=50 / rc=crf / mbtree=1 / crf=20.0 / qcomp=0.60 / qpmin=5 / qpmax=69 / qpstep=4 / vbv_maxrate=5500 / vbv_bufsize=15000 / crf_max=0.0 / nal_hrd=none / filler=0 / ip_ratio=1.40 / aq=1:1.00
Дата кодирования : UTC 2019-02-14 11:39:35
Дата пометки : UTC 2019-02-14 11:39:35
Цветовой диапазон : Limited
Основные цвета : BT.709
Характеристики трансфера : BT.709
Коэффициенты матрицы : BT.709
Codec configuration box : avcC
Аудио
Идентификатор : 2
Формат : AAC LC
Формат/Информация : Advanced Audio Codec Low Complexity
Идентификатор кодека : mp4a-40-2
Продолжительность : 37 с. 973 мс.
Вид битрейта : Переменный
Битрейт : 137 Кбит/сек
Каналы : 2 канала
Channel layout : L R
Частота : 48,0 КГц
Частота кадров : 46,875 кадров/сек (1024 SPF)
Метод сжатия : С потерями
Размер потока : 635 Кбайт (6%)
Дата кодирования : UTC 2019-02-14 11:39:35
Дата пометки : UTC 2019-02-14 11:39:35

Дополнительная информация:

В раздаче присутствует файл: Структура курса.docx - в нем указан правильный порядок прохождения материала. Если в раздаче будут ошибки - пишите, буду исправлять
Скриншоты:
Скачать .torrent

Чтобы скачать торрент-файл

SkillFactory - Deep Learning и Нейронные сети (2019)

Вам нужно Авторизоваться на сайте под своим логином. Если у Вы ещё не зарегистрированы, тогда Вам нужно пройти Регистрацию


Показать сообщения:    
Ответить на тему

Скачать SkillFactory - Deep Learning и Нейронные сети (2019) торрент бесплатно. Отзывы, слив складчины.

Текущее время: Сегодня 10:58

Часовой пояс: GMT + 4



Вы не можете начинать темы
Вы не можете отвечать на сообщения
Вы не можете редактировать свои сообщения
Вы не можете удалять свои сообщения
Вы не можете голосовать в опросах
Вы не можете прикреплять файлы к сообщениям
Вы не можете скачивать файлы