Новые раздачи

29-Ноя
29-Ноя
28-Ноя
28-Ноя
28-Ноя
28-Ноя
28-Ноя
28-Ноя
28-Ноя
28-Ноя
28-Ноя
28-Ноя
28-Ноя
28-Ноя
28-Ноя

Важное

Игорь Серов - СуперЭнергетика 2.0 (2017) торрент

Ответить на тему
 
Автор Сообщение

Prescious ®

Игорь Серов | СуперЭнергетика 2.0 (2017) PCRec - Автор: Игорь Серов
Жанр: Видеокурсы
Описание:
Как обрести бурлящую энергию и добиться того, что кажется невозможным…
Пройдя программу "СуперЭнергетика 2.0", вы:
- опробуете множество методов поднятия энергии и выберете подходящие именно вам;
- узнаете, как мгновенно входить в состояние бодрости и готовности действовать;
- разберетесь с некоторыми причинами низкого уровня энергии;
- опробуете способы хорошо выспаться;
- разовьёте силу воли;
- ненапряжено сбросите пару лишних кило;
- подкорректируете питание, чтобы еда давала силы и легкость в теле;
- изменитесь до неузнаваемости и посмотрите на мир глазами другого человека - энергичного, заряженного мотивацией;
- будто проснётесь от долгой зимней спячки.
Продолжительность: 06:00:00
Качество видео: PCRec
Видео: HEVC/H.265, 1280x720, ~1620 Kbps
Аудио: AAC, 2 ch, 256 kbps

MediaInfo:

Video
ID : 1
Format : AVC
Format/Info : Advanced Video Codec
Format profile : High@L3.2
Format settings, CABAC : Yes
Format settings, ReFrames : 5 frames
Format settings, GOP : M=4, N=75
Codec ID : avc1
Codec ID/Info : Advanced Video Coding
Duration : 11 min
Bit rate : 1 621 kb/s
Width : 1 280 pixels
Height : 720 pixels
Display aspect ratio : 16:9
Frame rate mode : Constant
Frame rate : 25.000 FPS
Color space : YUV
Chroma subsampling : 4:2:0
Bit depth : 8 bits
Scan type : Progressive
Bits/(Pixel*Frame) : 0.070
Stream size : 134 MiB (86%)
Writing library : x264 core 148 r10 90a61ec
Encoding settings : cabac=1 / ref=5 / deblock=1:0:0 / analyse=0x3:0x113 / me=hex / subme=8 / psy=1 / psy_rd=1.00:0.00 / mixed_ref=1 / me_range=16 / chroma_me=1 / trellis=2 / 8x8dct=1 / cqm=0 / deadzone=21,11 / fast_pskip=1 / chroma_qp_offset=-2 / threads=22 / lookahead_threads=3 / sliced_threads=0 / nr=0 / decimate=1 / interlaced=0 / bluray_compat=0 / stitchable=1 / constrained_intra=0 / bframes=3 / b_pyramid=2 / b_adapt=1 / b_bias=0 / direct=3 / weightb=1 / open_gop=0 / weightp=2 / keyint=infinite / keyint_min=25 / scenecut=40 / intra_refresh=0 / rc_lookahead=50 / rc=crf / mbtree=1 / crf=20.0 / qcomp=0.60 / qpmin=5 / qpmax=69 / qpstep=4 / vbv_maxrate=2750 / vbv_bufsize=7500 / crf_max=0.0 / nal_hrd=none / filler=0 / ip_ratio=1.40 / aq=1:1.00
Encoded date : UTC 2017-05-17 07:34:02
Tagged date : UTC 2017-05-17 07:34:02
Color range : Limited
Color primaries : BT.709
Transfer characteristics : BT.709
Matrix coefficients : BT.709
Audio
ID : 2
Format : AAC
Format/Info : Advanced Audio Codec
Format profile : LC
Codec ID : 40
Duration : 11 min
Bit rate mode : Variable
Bit rate : 256 kb/s
Channel(s) : 2 channels
Channel positions : Front: L R
Sampling rate : 48.0 kHz
Frame rate : 46.875 FPS (1024 spf)
Compression mode : Lossy
Stream size : 21.2 MiB (14%)
Encoded date : UTC 2017-05-17 07:34:02
Tagged date : UTC 2017-05-17 07:34:02
Скриншоты:
Скачать .torrent

Чтобы скачать торрент-файл

Игорь Серов - СуперЭнергетика 2.0 (2017)

Вам нужно Авторизоваться на сайте под своим логином. Если у Вы ещё не зарегистрированы, тогда Вам нужно пройти Регистрацию


Показать сообщения:    
Ответить на тему

Скачать Игорь Серов - СуперЭнергетика 2.0 (2017) торрент бесплатно. Отзывы, слив складчины.

Текущее время: Сегодня 11:20

Часовой пояс: GMT + 4



Вы не можете начинать темы
Вы не можете отвечать на сообщения
Вы не можете редактировать свои сообщения
Вы не можете удалять свои сообщения
Вы не можете голосовать в опросах
Вы не можете прикреплять файлы к сообщениям
Вы не можете скачивать файлы