Евгений Дейнеко и Маргарита Мураховская - Секрет исполнения желаний (2013) торрент

Ответить на тему
 
Автор Сообщение

Prescious ®

Евгений Дейнеко и Маргарита Мураховская | Секрет исполнения желаний (2013) PCRec - Автор: Евгений Дейнеко и Маргарита Мураховская
Жанр: Видеокурсы
Описание:
Каждый пункт программы содержит в себе проверенные методы и богатый личный опыт. Только в этом мастер классе, Евгений Дейнеко передаст вам свои личные методики работы с реальностью.
Содержание курса:
• Что такое созидательная энергия человека;
• Почему не исполняются желания;
• Как эмоции и страхи человека блокируют реализацию желаний;
• Как загадывать желания, чтобы они исполнились;
• 3 правила создания желаний, которые сбудутся;
• Как нарабатывать и управлять созидательной энергией;
• Как убрать психологическую зависимость от реализации желаний;
• Новогодние желания, как загадывать правильно;
• Как мы влияем на реальность и она на нас;.
• Принципы управления реальностью.

Продолжение описания:

Темы курса:
• 5 критических ошибок, которые мешают Мирозданию дать вам все, что вы хотите.
• Как быстро исполнять мелкие желания;
• Где взять энергию для реализации крупных желаний;
• Как 90% людей теряют свою энергию;
• Алгоритм исполнения желаний;
• Методика «Троичное загадывание желаний»
• Как исполнить все желания оптом;
• Методика «Волшебный список желаний»;
• Как привлечь Мироздание для реализации своих желаний.
• Медитация «Я принимаю дары вселенной»;
• Как создавать реальность своим желанием.
• Энергетический вес человека.
Методы работы над исполнением желаний содержат в себе глубокую личностную трансформацию человека направленную на личную гармонию. Тотальное исполнение всех желаний возможно при работе над собой и гармонизации вашей жизни.
Какие результаты вас ждут после этого курса
• Освобождение от ошибок мешающих исполнять желания;
• Быстрое исполнение небольших желаний: шуба, iPad, отдых в Турции;
• Весомые желания (машина, дом, путешествия) исполняются в 4-6 раз быстрее;
• Исполнение нереальных и огромных желаний;
• Обретение внутренней гармонии в душе. Вы всегда спокойны и счастливы;
• Все желания исполняются автоматически и без вашего участия;
• События в жизни происходят самым лучшим для вас образом;
• Исполнение 30-50 желаний ежедневно!
БОНУСЫ:
Special report "Тотальный прорыв 2013"
Бланковая методика планирования тотального прорыва в 6-ти основных сферах жизни на 2013 год.
Обогащение по-мужски и по-женски
Мастер-класс Евгения Дейнеко и Маргариты Мураховской
Продолжительность: 03:00:00
Качество видео: PCRec
Видео: AVC/H.264, 640x356-766х682, ~113 kbps
Аудио: AAC, 2 ch, 96 kbps

MediaInfo:

Video
ID : 1
Format : AVC
Format/Info : Advanced Video Codec
Format profile : Baseline@L3
Format settings, CABAC : No
Format settings, ReFrames : 1 frame
Format settings, GOP : M=1, N=30
Codec ID : avc1
Codec ID/Info : Advanced Video Coding
Duration : 1 h 45 min
Bit rate : 390 kb/s
Maximum bit rate : 2 113 kb/s
Width : 640 pixels
Height : 356 pixels
Display aspect ratio : 16:9
Frame rate mode : Constant
Frame rate : 29.970 (30000/1001) FPS
Color space : YUV
Chroma subsampling : 4:2:0
Bit depth : 8 bits
Scan type : Progressive
Bits/(Pixel*Frame) : 0.057
Stream size : 295 MiB (80%)
Encoded date : UTC 1970-01-01 00:00:00
Tagged date : UTC 2012-05-05 00:31:22
Audio
ID : 2
Format : AAC
Format/Info : Advanced Audio Codec
Format profile : LC
Codec ID : 40
Duration : 1 h 45 min
Bit rate mode : Variable
Bit rate : 96.0 kb/s
Maximum bit rate : 152 kb/s
Channel(s) : 2 channels
Channel positions : Front: L R
Sampling rate : 44.1 kHz
Frame rate : 43.066 FPS (1024 spf)
Compression mode : Lossy
Stream size : 72.7 MiB (20%)
Title : IsoMedia File Produced by Google, 5-11-2011
Encoded date : UTC 2012-05-05 00:31:20
Tagged date : UTC 2012-05-05 00:31:22
Скриншоты:
Скачать .torrent

Чтобы скачать торрент-файл

Евгений Дейнеко и Маргарита Мураховская - Секрет исполнения желаний (2013)

Вам нужно Авторизоваться на сайте под своим логином. Если у Вы ещё не зарегистрированы, тогда Вам нужно пройти Регистрацию


Показать сообщения:    
Ответить на тему

Скачать Евгений Дейнеко и Маргарита Мураховская - Секрет исполнения желаний (2013) торрент бесплатно. Отзывы, слив складчины.

Текущее время: Сегодня 19:08

Часовой пояс: GMT + 4



Вы не можете начинать темы
Вы не можете отвечать на сообщения
Вы не можете редактировать свои сообщения
Вы не можете удалять свои сообщения
Вы не можете голосовать в опросах
Вы не можете прикреплять файлы к сообщениям
Вы не можете скачивать файлы