Людмила Мартьянова и др. - Модели профайлинга для гармоничных отношений (2017) торрент

Ответить на тему
 
Автор Сообщение

Prescious ®

Людмила Мартьянова и др. | Модели профайлинга для гармоничных отношений (2017) PCRec - Автор: Людмила Мартьянова, Владимир Рябов
Жанр: Тренинг
Описание:
Как выбрать достойную девушку для серьезных отношений? Модели профайлинга и успешные модели соблазнения для гармоничных отношений.
Чему вы научитесь:
-Находить правильный подход для каждой конкретной девушки.
-Прогнозировать поведение избранницы в отношениях.
-Выявлять ее структуру ценностей и мотивов, к чему она действительно стремится в общении с мужчинами.
-Быстро находить с ней общий язык.
-Без тестов и длительного изучения узнавать все, что надо знать о ней обращая внимание на её лицо, речь и манеру поведения.
-Узнавать психологические особенности уже после 5 минут общения с девушкой.
О чем вы узнаете::
*Роль профайлинга в подборе партнера в отношениях
*Девушки
-Истероидного психотипа («звездули»)
-Эпилептоидного психотипа («девушки-генералы»)
-Паранояльного психотипа («бизнесwomen»)
-Гипертимного психотипа («девушки-энерджайзеры»)
-Шизоидного психотипа («девушки-Эйнштейн»)
-Тревожно-мнительного психотипа («девушки-мышки»)
-Депрессивно-печального психотипа («девушки-эмо»)
-Внешний вид, особенности, достоинства и недостатки, стратегии поведения в отношениях
-Разбор конкретных ситуаций участников тренинга
Продолжительность: 07:00:00
Качество видео: PCRec
Видео: AVC/H.264, 640x360, ~163 kbps
Аудио: AAC, 2 ch, 96 kbs

MediaInfo:

Video
ID : 1
Format : AVC
Format/Info : Advanced Video Codec
Format profile : Baseline@L3
Format settings, CABAC : No
Format settings, ReFrames : 1 frame
Format settings, GOP : M=1, N=60
Codec ID : avc1
Codec ID/Info : Advanced Video Coding
Duration : 1 h 58 min
Bit rate : 191 kb/s
Maximum bit rate : 666 kb/s
Width : 640 pixels
Height : 360 pixels
Display aspect ratio : 16:9
Frame rate mode : Variable
Frame rate : 29.871 FPS
Minimum frame rate : 10.000 FPS
Maximum frame rate : 30.000 FPS
Color space : YUV
Chroma subsampling : 4:2:0
Bit depth : 8 bits
Scan type : Progressive
Bits/(Pixel*Frame) : 0.028
Stream size : 161 MiB (66%)
Tagged date : UTC 2017-02-28 18:53:17
Audio
ID : 2
Format : AAC
Format/Info : Advanced Audio Codec
Format profile : LC
Codec ID : 40
Duration : 1 h 58 min
Bit rate mode : Variable
Bit rate : 96.0 kb/s
Maximum bit rate : 103 kb/s
Channel(s) : 2 channels
Channel positions : Front: L R
Sampling rate : 44.1 kHz
Frame rate : 43.066 FPS (1024 spf)
Compression mode : Lossy
Stream size : 81.0 MiB (33%)
Title : IsoMedia File Produced by Google, 5-11-2011
Encoded date : UTC 2017-02-28 18:52:57
Tagged date : UTC 2017-02-28 18:53:17
Скриншоты:
Скачать .torrent

Чтобы скачать торрент-файл

Людмила Мартьянова и др. - Модели профайлинга для гармоничных отношений (2017)

Вам нужно Авторизоваться на сайте под своим логином. Если у Вы ещё не зарегистрированы, тогда Вам нужно пройти Регистрацию


Показать сообщения:    
Ответить на тему

Скачать Людмила Мартьянова и др. - Модели профайлинга для гармоничных отношений (2017) торрент бесплатно. Отзывы, слив складчины.

Текущее время: Сегодня 15:02

Часовой пояс: GMT + 4



Вы не можете начинать темы
Вы не можете отвечать на сообщения
Вы не можете редактировать свои сообщения
Вы не можете удалять свои сообщения
Вы не можете голосовать в опросах
Вы не можете прикреплять файлы к сообщениям
Вы не можете скачивать файлы