Герман Семенюк - Радикальное Прощение: Освободи пространство для чуда (2016) торрент

Ответить на тему
 
Автор Сообщение

Prescious ®

Герман Семенюк | Радикальное Прощение: Освободи пространство для чуда (2016) PCRec - Автор: Герман Семенюк
Жанр: Тренинг
Описание:
Уникальный трансформационный тренинг по методике Колина Типпинга (Colin Tipping), автора мирового бестселлера "Радикальное Прощение".
Тренинг позволяет радикально улучшить такие сферы жизни:
Личная жизнь: Исцелите все прошлые травмы и обиды, которые сегодня мешают найти партнёра или наладить отношения в паре.
Отношения: Начните выстраивать гармоничные отношения, в которых есть принятие, поддержка и самоуважение.
Деньги: Уберите ограничивающие убеждения, которые сегодня не пускают новые возможности в вашу жизнь.
Тренинг "Радикальное прощение: Освободи пространство для чуда!" поможет вам:
-Найти и исцелить причину, по которой происходят повторяющиеся неприятные ситуации.
-Осознать и отпустить самую главную обиду, которая управляет вашими поступками.
-Принять и полюбить себя и своих бывших обидчиков, чтобы освободить пространство для чуда и в результате почувствовать себя по-настоящему счастливым/счастливой.
-Что нужно сделать для того, чтобы Радикальное Прощение произошло?

Продолжение описания:

Радикальное Прощение — это инновационная техника открытия сердца для Любви, освобождения от обид и гнева, трансформация агрессии в энергию любви и возвращение к радостной и счастливой жизни. Радикальное Прощение — невероятно простой и мощный инструмент для роста и перемен. Поскольку он работает с сердцем, а не с головой, то изменения происходят фактически сразу.
Радикальное Прощение обходит ум человека и взаимодействует с душой, которая знает истину о том, кем мы на самом деле являемся.
Главная ценность этого тренинга в том, что применяя специальные упражнения и техники Радикального Прощения, вы освободите пространство в своём сердце для любви, для новых отношений и сможете создать оптимальные условия и для достижения своих целей, и для исполнения своих желаний.
Что вам дают инструменты Радикального Прощения?
-У вас высвобождается море энергии, которая раньше тратилась на злость, обиды и сопротивление.
-Просыпаясь утром, вы чувствуете, что жизнь наполнена радостью.
-Вы создаёте новые и наполняете существующие отношения любовью и принятием как с близкими, так и со всеми окружающими вас людьми.
-Ваши желания начинают исполняться, вы с лёгкостью достигаете свои цели.
-За всеми ситуациями в жизни вы начинаете видеть их истинный смысл, как следствие, принятие любой ситуации происходит естественным образом, без уговаривания себя, и без самообмана.
-Вы осознаете, что все люди — это всего лишь почтальоны, которые приносят вам письма о вас самих.
-Вы поймёте, что Вселенная давно вам что-то хочет сказать, а вы упорно не хотите её слышать.
-Вы знаете, что если вдруг на горизонте замаячит обида или дискомфорт, вы не будете тратить на них свою энергию, а легко с ними справитесь с помощью инструментов Радикального Прощения.
Содержание:
Занятие 1. Подготовка
Организационные вопросы. Основы Радикального Прощения. Формулировка желаний. Упражнение: "Кто мешает мне быть здоровым, успешным и богатым".
Занятие 2. Состояние жертвы
Кармическая предрасположенность Вашей неприятной ситуации. Стержневые негативные убеждения. Упражнение: "Цепочка взаимодействия".
Занятие 3. Изучение обиды
Узнаём из чего состоит обида. Понимаем, как мы себя накручиваем. Что делать и как поступаить, чтобы уменьшить или полностью убрать влияние обиды.
Занятие 4. Кругом зеркала
Закон отражения. Узнаем, что такое отзеркаливание и поймём, что наш обидчик нам отражает. Узнаем, как принять и полюбить себя.
Занятие 5. Исполнение желаний
Волшебство Радикального проявления. Узнаем, что на самом деле мы хотим. Увидим, что мешает выполнению наших желаний и как это исправить.
Занятие 6. Радикальное проявление
Изучаем Радикальное проявление. Учимся выбирать и получать то, что хочется. Заполняем анкету Радикального Проявления.
Продолжительность: 12:00:00
Качество видео: PCRec
Видео: AVC/H.264, 1280x720, ~650 kbps
Аудио: AAC, 2 ch, 192 Kbps

MediaInfo:

Video
ID : 1
Format : AVC
Format/Info : Advanced Video Codec
Format profile : High@L3.1
Format settings, CABAC : Yes
Format settings, ReFrames : 1 frame
Codec ID : avc1
Codec ID/Info : Advanced Video Coding
Duration : 2 h 3 min
Bit rate : 962 kb/s
Maximum bit rate : 3 119 kb/s
Width : 1 280 pixels
Height : 720 pixels
Display aspect ratio : 16:9
Frame rate mode : Constant
Frame rate : 15.000 FPS
Color space : YUV
Chroma subsampling : 4:2:0
Bit depth : 8 bits
Scan type : Progressive
Bits/(Pixel*Frame) : 0.070
Stream size : 852 MiB (83%)
Tagged date : UTC 2016-03-01 22:36:59
Audio
ID : 2
Format : AAC
Format/Info : Advanced Audio Codec
Format profile : LC
Codec ID : 40
Duration : 2 h 3 min
Bit rate mode : Variable
Bit rate : 192 kb/s
Maximum bit rate : 202 kb/s
Channel(s) : 2 channels
Channel positions : Front: L R
Sampling rate : 44.1 kHz
Frame rate : 43.066 FPS (1024 spf)
Compression mode : Lossy
Stream size : 170 MiB (17%)
Title : IsoMedia File Produced by Google, 5-11-2011
Encoded date : UTC 2016-03-01 22:36:25
Tagged date : UTC 2016-03-01 22:36:59
Скриншоты:
Скачать .torrent

Чтобы скачать торрент-файл

Герман Семенюк - Радикальное Прощение: Освободи пространство для чуда (2016)

Вам нужно Авторизоваться на сайте под своим логином. Если у Вы ещё не зарегистрированы, тогда Вам нужно пройти Регистрацию


Показать сообщения:    
Ответить на тему

Скачать Герман Семенюк - Радикальное Прощение: Освободи пространство для чуда (2016) торрент бесплатно. Отзывы, слив складчины.

Текущее время: Сегодня 18:43

Часовой пояс: GMT + 4



Вы не можете начинать темы
Вы не можете отвечать на сообщения
Вы не можете редактировать свои сообщения
Вы не можете удалять свои сообщения
Вы не можете голосовать в опросах
Вы не можете прикреплять файлы к сообщениям
Вы не можете скачивать файлы