Stephen Wells - Polypainting in ZBrush Volume 1-3 (2015) торрент

Ответить на тему
 
Автор Сообщение

Prescious ®

Stephen Wells | Polypainting in ZBrush Volume 1-3 (2015) PCRec - Автор: Stephen Wells
Производство: 3DMotive
Жанр: Текстурирование персонажей
Описание:
В этой серии уроков мы поговорим о создании текстур в ZBrush с использованием полипэинта.
Мы рассмотрим сам меш модели и найдем референсы, а затем сделаем познакомимся с маткапами и цветами.
Следущем этапом будет наложение основного отенка кожи.
Используя альфа-канал, создадим поры, которые обычно присутствуют на коже. Воспользуемся техникой маскирования углубленных участков, чтобы добавить тени и кистью-спреем создадим щетину.
И наконец перейдем к созданию реалистичного и контрастного цвета глаз и рогов демона.
Продолжительность: 03:47:00
Качество видео: PCRec
Видео: AVC/H.264, 1280x720, ~7417kbps
Аудио: MP3, 2 ch, 192kbps

MediaInfo:

Общее
Полное имя : G:\ZBRUSH\3DMotive - Organic Polypainting in ZBrush Volume 1-3\3DMotive - Organic Polypainting in ZBrush Volume 3\01-Intro to Polypainting in Zbrush.mp4
Формат : MPEG-4
Профиль формата : Base Media
Идентификатор кодека : isom (isom/iso2/avc1/mp41)
Размер файла : 54,6 Мбайт
Продолжительность : 1 м. 1 с.
Общий поток : 7 475 Кбит/сек
Программа кодирования : Lavf54.29.104
Видео
Идентификатор : 1
Формат : AVC
Формат/Информация : Advanced Video Codec
Профиль формата : High@L3.1
Настройки формата : CABAC / 4 Ref Frames
Параметр CABAC формата : Да
Параметр RefFrames формата : 4 кадра
Идентификатор кодека : avc1
Идентификатор кодека/Информация : Advanced Video Coding
Продолжительность : 1 м. 1 с.
Битрейт : 7 417 Кбит/сек
Номинальный битрейт : 8 000 Кбит/сек
Ширина : 1 280 пикселей
Высота : 720 пикселей
Соотношение сторон : 16:9
Режим частоты кадров : Постоянный
Частота кадров : 30,000 кадров/сек
Цветовое пространство : YUV
Субдискретизация насыщенности : 4:2:0
Битовая глубина : 8 бит
Тип развёртки : Прогрессивная
Бит/(Пиксели*Кадры) : 0.268
Размер потока : 54,1 Мбайт (99%)
Библиотека кодирования : x264 core 129
Язык : English
Codec configuration box : avcC
Аудио
Идентификатор : 2
Формат : AAC LC
Формат/Информация : Advanced Audio Codec Low Complexity
Идентификатор кодека : mp4a-40-2
Продолжительность : 1 м. 1 с.
Вид битрейта : Постоянный
Битрейт : 53,6 Кбит/сек
Каналы : 2 канала
Channel layout : L R
Частота : 44,1 КГц
Частота кадров : 43,066 кадра/сек (1024 SPF)
Метод сжатия : С потерями
Размер потока : 400 Кбайт (1%)
Язык : English
Default : Да
Alternate group : 1

Дополнительная информация:

Pixologic ZBrush
Volume1
Часть 1 – Вступительная часть – 01:08
Часть 2 – Обзор модели и референсов – 05:22
Часть 3 – Маткапы и маскирование – 11:40
Часть 4 – Наложение основного цвета кожи – 14:18
Часть 5 – Продолжение работы с пятнами на коже – 13:29
Часть 6 – Добавление щетины – 14:32
Часть 7 – Добавление цвета губ при помощи спотлайта – 13:35
Часть 8 – Создание вариаций глаз – 11:08
Volume 2
Часть 1 – Вступительная часть – 01:08
Часть 2 – Обзор модели и референсов – 05:22
Часть 3 – Маткапы и маскирование – 11:40
Часть 4 – Наложение основного цвета кожи – 14:18
Часть 5 – Продолжение работы с пятнами на коже – 13:29
Часть 6 – Добавление щетины – 14:32
Часть 7 – Добавление цвета губ при помощи спотлайта – 13:35
Часть 8 – Создание вариаций глаз – 11:08
Volume 3
Часть 1 – Вступительная часть – 01:08
Часть 2 – Обзор модели и референсов – 05:22
Часть 3 – Маткапы и маскирование – 11:40
Часть 4 – Наложение основного цвета кожи – 14:18
Часть 5 – Продолжение работы с пятнами на коже – 13:29
Часть 6 – Добавление щетины – 14:32
Часть 7 – Добавление цвета губ при помощи спотлайта – 13:35
Часть 8 – Создание вариаций глаз – 11:08
Скриншоты:
Скачать .torrent

Чтобы скачать торрент-файл

Stephen Wells - Polypainting in ZBrush Volume 1-3 (2015)

Вам нужно Авторизоваться на сайте под своим логином. Если у Вы ещё не зарегистрированы, тогда Вам нужно пройти Регистрацию


Показать сообщения:    
Ответить на тему

Скачать Stephen Wells - Polypainting in ZBrush Volume 1-3 (2015) торрент бесплатно. Отзывы, слив складчины.

Текущее время: Сегодня 14:24

Часовой пояс: GMT + 4



Вы не можете начинать темы
Вы не можете отвечать на сообщения
Вы не можете редактировать свои сообщения
Вы не можете удалять свои сообщения
Вы не можете голосовать в опросах
Вы не можете прикреплять файлы к сообщениям
Вы не можете скачивать файлы