Jonathan Rush - Photogrammetry for Games (2016) торрент

Ответить на тему
 
Автор Сообщение

Prescious ®

Jonathan Rush | Photogrammetry for Games (2016) PCRec [En, Ru] - Автор: Jonathan Rush
Производство: CGWorkshops
Жанр: Создание видео
Описание:
Фотограмметрия это процесс получения визуальной информации из массива фотографий с целью создания полностью затекстурированных высокополигональных моделей. Это инструмент, который используется во многих индустриях, таких как создание карт, археологии и кинематографе.

Продолжение описания:

Только недавно данный метод стал проникать в индустрию видеоигр, самым яркими примером является Star Wars: BattleFront от ЕА. Фотограмметрия значительно подняла планку качества, которое люди ожидают от новых игр и в ближайшее время фотограмметрия станет обычным делом. Эта методика действительно способна зажечь искру!
В данном курсе вы обретете мастерство в соответствующих программных продуктах и техниках фотограмметрии, необходимых для получения наилучшего результата. Но этим мы не ограничимся, вы также поймете, как эти техники внедряются в процесс работы в игровой индустрии, когда вы превращает ваши фотограмметрические творения в стандартные для видеоигр модели, которые можно использовать в игровых движках и которые покрыты физически корректными материалами.
Продолжительность: 06:41:00
Качество видео: PCRec
Язык озвучки: Английский, Русский
Видео: AVC/H.264, 1280x720, ~1448 kbps
Аудио: AAC, 2 ch, 127 kbps
Аудио 2: MP3, 2 ch, 192 kbps (отдельным файлом)

MediaInfo:

General
Complete name : K:\[CGWorkshops] Photogrammetry for Games [ENG-RUS]\Week 1 - Introduction to Photogrammetry\Photogrammetry for Modern Games week 1 3D Classroom CG Master Academy.flv
Format : MPEG-4
Format profile : Base Media
Codec ID : isom (isom/iso2/avc1/mp41)
File size : 32.4 MiB
Duration : 2 min 51 s
Overall bit rate mode : Variable
Overall bit rate : 1 584 kb/s
Writing application : Lavf57.25.100
FileExtension_Invalid : braw mov mp4 m4v m4a m4b m4p m4r 3ga 3gpa 3gpp 3gp 3gpp2 3g2 k3g jpm jpx mqv ismv isma ismt f4a f4b f4v
Video
ID : 1
Format : AVC
Format/Info : Advanced Video Codec
Format profile : High@L3.1
Format settings : CABAC / 5 Ref Frames
Format settings, CABAC : Yes
Format settings, Reference fra : 5 frames
Codec ID : avc1
Codec ID/Info : Advanced Video Coding
Duration : 2 min 51 s
Bit rate : 1 449 kb/s
Width : 1 280 pixels
Height : 720 pixels
Display aspect ratio : 16:9
Frame rate mode : Constant
Frame rate : 30.000 FPS
Color space : YUV
Chroma subsampling : 4:2:0
Bit depth : 8 bits
Scan type : Progressive
Bits/(Pixel*Frame) : 0.052
Stream size : 29.6 MiB (91%)
Writing library : x264 core 148 r2665 a01e339
Encoding settings : cabac=1 / ref=5 / deblock=1:0:0 / analyse=0x3:0x113 / me=umh / subme=8 / psy=1 / psy_rd=1.00:0.00 / mixed_ref=1 / me_range=16 / chroma_me=1 / trellis=1 / 8x8dct=1 / cqm=0 / deadzone=21,11 / fast_pskip=1 / chroma_qp_offset=-2 / threads=12 / lookahead_threads=2 / sliced_threads=0 / nr=0 / decimate=1 / interlaced=0 / bluray_compat=0 / constrained_intra=0 / bframes=3 / b_pyramid=2 / b_adapt=2 / b_bias=0 / direct=3 / weightb=1 / open_gop=0 / weightp=2 / keyint=250 / keyint_min=25 / scenecut=40 / intra_refresh=0 / rc_lookahead=50 / rc=crf / mbtree=1 / crf=26.0 / qcomp=0.60 / qpmin=0 / qpmax=69 / qpstep=4 / ip_ratio=1.40 / aq=1:1.00
Language : English
Codec configuration box : avcC
Audio
ID : 2
Format : AAC LC
Format/Info : Advanced Audio Codec Low Complexity
Codec ID : mp4a-40-2
Duration : 2 min 51 s
Bit rate mode : Variable
Bit rate : 128 kb/s
Channel(s) : 2 channels
Channel layout : L R
Sampling rate : 44.1 kHz
Frame rate : 43.066 FPS (1024 SPF)
Compression mode : Lossy
Stream size : 2.60 MiB (8%)
Language : English
Default : Yes
Alternate group : 1

Дополнительная информация:

Программное обеспечение: Agisoft Photoscan, Marmoset Toolbag, Knald, Photoshop, Topogun
Файлы примеров: Нет
Скриншоты:
Скачать .torrent

Чтобы скачать торрент-файл

Jonathan Rush - Photogrammetry for Games (2016)

Вам нужно Авторизоваться на сайте под своим логином. Если у Вы ещё не зарегистрированы, тогда Вам нужно пройти Регистрацию


Показать сообщения:    
Ответить на тему

Скачать Jonathan Rush - Photogrammetry for Games (2016) торрент бесплатно. Отзывы, слив складчины.

Текущее время: Сегодня 15:49

Часовой пояс: GMT + 4



Вы не можете начинать темы
Вы не можете отвечать на сообщения
Вы не можете редактировать свои сообщения
Вы не можете удалять свои сообщения
Вы не можете голосовать в опросах
Вы не можете прикреплять файлы к сообщениям
Вы не можете скачивать файлы