Michael Pavlovich - Photogrammetry Basics (2018) торрент

Ответить на тему
 
Автор Сообщение

Prescious ®

Michael Pavlovich | Photogrammetry Basics (2018) PCRec [En, Ru] - Автор: Michael Pavlovich
Производство: Gumroad
Жанр: Создание видео
Описание:
Серия уроков, где мы рассмотрим все начиная с настройки камеры (используя просто ваш телефон) до выравнивания изображений, конструирования облака точек и геометрии, текстурирования, подчистки в Zbrush и перепроецирования текстур обратно на вашу почищенную модель с новыми ЮВ координатами. Мы будем использовать как Reality Capture, так и Photoscan и исходники будут прилагаться, если вы захотите следовать за курсом.
Продолжительность: 02:54:00
Качество видео: PCRec
Язык озвучки: Английский, Русский
Видео: AVC/H.264, 1920x1080, ~2599 kbps
Аудио: AAC, 2 ch, 125 kbps
Аудио 2: MP3, 2 ch, 192 kbps (отдельным файлом)

MediaInfo:

General
Complete name : K:\[Gumroad] Photogrammetry Basics [ENG-RUS]\001_CameraSettings.mp4
Format : MPEG-4
Format profile : Base Media / Version 2
Codec ID : mp42 (isom/mp42)
File size : 25.1 MiB
Duration : 1 min 17 s
Overall bit rate mode : Variable
Overall bit rate : 2 727 kb/s
Movie name : 001_CameraSettings
Encoded date : UTC 2018-01-08 12:52:05
Tagged date : UTC 2018-01-08 12:52:05
Video
ID : 1
Format : AVC
Format/Info : Advanced Video Codec
Format profile : Baseline@L4.1
Format settings : 1 Ref Frames
Format settings, CABAC : No
Format settings, Reference fra : 1 frame
Codec ID : avc1
Codec ID/Info : Advanced Video Coding
Duration : 1 min 17 s
Bit rate : 2 599 kb/s
Width : 1 920 pixels
Height : 1 080 pixels
Display aspect ratio : 16:9
Frame rate mode : Constant
Frame rate : 30.000 FPS
Standard : NTSC
Color space : YUV
Chroma subsampling : 4:2:0
Bit depth : 8 bits
Scan type : Progressive
Bits/(Pixel*Frame) : 0.042
Stream size : 23.9 MiB (95%)
Language : English
Encoded date : UTC 2018-01-08 12:52:06
Tagged date : UTC 2018-01-08 12:52:06
Color range : Limited
Codec configuration box : avcC
Audio
ID : 2
Format : AAC LC
Format/Info : Advanced Audio Codec Low Complexity
Codec ID : mp4a-40-2
Duration : 1 min 17 s
Bit rate mode : Variable
Bit rate : 126 kb/s
Maximum bit rate : 164 kb/s
Channel(s) : 2 channels
Channel layout : L R
Sampling rate : 44.1 kHz
Frame rate : 43.066 FPS (1024 SPF)
Compression mode : Lossy
Stream size : 1.16 MiB (5%)
Language : English
Encoded date : UTC 2018-01-08 12:52:06
Tagged date : UTC 2018-01-08 12:52:06

Дополнительная информация:

Программное обеспечение: Reality Capture, Photoscan, Zbrush
Файлы примеров: Есть

Об Авторе:

Майкл Павлович - художник по персонажам, его специализация - 3D концепт арт и продакшн пайплайны.
В 2005 закончил Ринглингский колледж искусств и дизайна, получив степень бакалавра изящных искусств в комптютерной анимации.
Начал свою карьеру в Electronic Arts в качестве художника по окружению, работал над такими проектами, как Madden NFL и NCAA Football, затем занимался анимацией персонажей комиксов DC Universe Online в составе Sony Online Entertainment.
Сейчас Майкл занимается созданием персонажей, оружия, транспортных средств, а также концепт артом для таких топовых видеоигр, как Halo, Call of Duty и DOOM в качестве ведущего художника (Senior Artist) для Certain Affinity.
Эта компания находится в Остине, штат Техас.

Содержание:

01. Camera Settings
02. Photo Best Practices
03. RealityCapture Layout
04. RealityCapture Adding Images
05. Aligning Ground and Boundaries
06. RealityCapture Mesh Generation
07. RealityCapture Mesh Export
08. Importing And Texturing External Mesh
09. Photoscan Importing Images
10. Photoscan Align Photos
11. Photoscan Dense Point Cloud
12. Photoscan Geometry And Masks
13. Photoscan Textures
14. Photoscan Save And Options
15. Photoscan Comparisons
16. Insert Mesh Boolean Cleanup
17. Mesh Extract Boolean Cleanup
18. Union Mesh Sculpt Cleanup
19. Photoscan ZRemesh
20. Photoscan Reprojecting Textures
21. Dynamesh Cleanup Mask Polygroup
22. Dynamesh Cleanup Split
23. Dynamesh Cleanup Sculpt And Noise
24. Dynamesh Cleanup More Techniques
25. Cleanup ZRemesh And Project
26. Cleanup UVMaster
27. Cleanup ZProject And Morph Brush
Скриншоты:
Скачать .torrent

Чтобы скачать торрент-файл

Michael Pavlovich - Photogrammetry Basics (2018)

Вам нужно Авторизоваться на сайте под своим логином. Если у Вы ещё не зарегистрированы, тогда Вам нужно пройти Регистрацию


Показать сообщения:    
Ответить на тему

Скачать Michael Pavlovich - Photogrammetry Basics (2018) торрент бесплатно. Отзывы, слив складчины.

Текущее время: Сегодня 19:19

Часовой пояс: GMT + 4



Вы не можете начинать темы
Вы не можете отвечать на сообщения
Вы не можете редактировать свои сообщения
Вы не можете удалять свои сообщения
Вы не можете голосовать в опросах
Вы не можете прикреплять файлы к сообщениям
Вы не можете скачивать файлы