Новые раздачи

02-Дек
02-Дек
02-Дек
01-Дек
01-Дек
01-Дек
01-Дек
01-Дек
01-Дек
01-Дек
01-Дек
01-Дек
01-Дек
30-Ноя
30-Ноя

Важное

Udemy, Михаил Савчук - ИТ под контролем: как не провалиться, если вы ИТ-менеджер (2020) торрент

Ответить на тему
 
Автор Сообщение

Prescious ®

Udemy, Михаил Савчук | ИТ под контролем: как не провалиться, если вы ИТ-менеджер (2020) PCRec - Автор: Михаил Савчук
Производство: Udemy
Жанр: Информационные технологии
Описание:
В этом курсе собрано 17 практик управления ИТ или контролей. Их использование помогает уменьшить количество жалоб и попутно улучшишь качество управления ИТ-службой. На каждом уроке мы рассмотрим по одному такому контролю. Начнем с описания типовых жалоб, которые вы могли слышать у себя в компании, пройдем по шагам алгоритм внедрения контроля, и закончим примером использования и короткой шпаргалкой по пройденному материалу.
Продолжительность: 02:41:51
Качество видео: PCRec
Видео: AVC/H.264, 1280х720, ~~1048 Kbps
Аудио: AAC, 2 ch, 128 Kbps

MediaInfo:

Общее
Полное имя : itcontrol\03 Лекция 3. Поддержка ИТ-систем\010 06. Централизованный учет заявок.mp4
Формат : MPEG-4
Профиль формата : Base Media
Идентификатор кодека : isom (isom/iso2/avc1/mp41)
Размер файла : 62,3 Мбайт
Продолжительность : 8 м. 48 с.
Общий поток : 989 Кбит/сек
Программа кодирования : Lavf57.71.100
Видео
Идентификатор : 1
Формат : AVC
Формат/Информация : Advanced Video Codec
Профиль формата : Main@L3.1
Настройки формата : CABAC / 4 Ref Frames
Параметр CABAC формата : Да
Параметр RefFrames формата : 4 кадра
Идентификатор кодека : avc1
Идентификатор кодека/Информация : Advanced Video Coding
Продолжительность : 8 м. 48 с.
Битрейт : 853 Кбит/сек
Номинальный битрейт : 3 000 Кбит/сек
Ширина : 1 280 пикселей
Высота : 720 пикселей
Соотношение сторон : 16:10
Режим частоты кадров : Постоянный
Частота кадров : 30,000 кадров/сек
Цветовое пространство : YUV
Субдискретизация насыщенности : 4:2:0
Битовая глубина : 8 бит
Тип развёртки : Прогрессивная
Бит/(Пиксели*Кадры) : 0.031
Размер потока : 53,7 Мбайт (86%)
Библиотека кодирования : x264 core 148
Аудио
Идентификатор : 2
Формат : AAC LC
Формат/Информация : Advanced Audio Codec Low Complexity
Идентификатор кодека : mp4a-40-2
Продолжительность : 8 м. 47 с.
Вид битрейта : Постоянный
Битрейт : 128 Кбит/сек
Каналы : 2 канала
Channel layout : L R
Частота : 44,1 КГц
Частота кадров : 43,066 кадра/сек (1024 SPF)
Метод сжатия : С потерями
Размер потока : 8,06 Мбайт (13%)
Default : Да
Alternate group : 1

Дополнительная информация:

Курс разбит на пять тем:
  • Стратегия и надзор. Поговорим о подготовке ИТ-стратегии и вовлечении менеджеров других подразделений в управление ИТ.
  • Затраты и закупки. Научимся планировать затраты и контролировать бюджет.
  • Поддержка ИТ-систем. Рассмотрим выполнение заявок пользователей и сопровождение ИТ-систем.
  • ИТ-проекты и изменения. Расскажем про планирование и реализацию проектов.
  • Непрерывность, безопасность и риски. Научимся защищать ИТ-системы компании от неблагоприятных событий.
Скриншоты:
Скачать .torrent

Чтобы скачать торрент-файл

Udemy, Михаил Савчук - ИТ под контролем: как не провалиться, если вы ИТ-менеджер (2020)

Вам нужно Авторизоваться на сайте под своим логином. Если у Вы ещё не зарегистрированы, тогда Вам нужно пройти Регистрацию


Показать сообщения:    
Ответить на тему

Скачать Udemy, Михаил Савчук - ИТ под контролем: как не провалиться, если вы ИТ-менеджер (2020) торрент бесплатно. Отзывы, слив складчины.

Текущее время: Сегодня 07:24

Часовой пояс: GMT + 4



Вы не можете начинать темы
Вы не можете отвечать на сообщения
Вы не можете редактировать свои сообщения
Вы не можете удалять свои сообщения
Вы не можете голосовать в опросах
Вы не можете прикреплять файлы к сообщениям
Вы не можете скачивать файлы