Madeleine Scott-Spencer - Introduction to Zbrush 2020 (2020) торрент

Ответить на тему
 
Автор Сообщение

Prescious ®

Madeleine Scott-Spencer | Introduction to Zbrush 2020 (2020) PCRec [En, Ru] - Автор: Madeleine Scott-Spencer
Производство: The Gnomon workshop
Жанр: Создание видео
Описание:
Этот курс представляет Madeleine Spencer. Он включает в себя 54 занятия длительностью более 20 часов. Мы начнем со вводного курса ZBrush. Он предназначен для полных новичков. разберемся с основными инструментами и функционалом, такими как dynamesh, уровни сабдивов, интерфейс и навигация ZBrush. После вводного курса мы начнем углубляться в более сложные аспекты работы с Zbrush, которые помогут вам более эффективно создавать персонажей, существ и разные предметы, как органические так и не органические, твердотельные.

Продолжение описания:

Мы разберемся с кастомизацией интерфейса, хоткеями, различными инструментами и техниками скульптинга, 3D альфами, кастомными кистями, наномеш и аррей меш и многим другим! Вы увидите, как проводится моделинг с помощью ZModeler, как работает кисть topology и Zremesher, узнаете как используется плагин Decimation Master при подготовке к 3D печати.
ZBrush является не просто инструментом скульптинга, но и имеет мощный функционал для раскрашивания моделей. Вы увидите как используется полипэинтинг, как работает UV master и Spotlight, познакомитесь с разными авторскими примерами техник раскрашивания (более 20 лет опыта автора в киноиндустрии).
Вы познакомитесь с проведением рендера в ZBrush с использованием Lightcaps, HDR изображений, научитесь кастомизации палитры материалов ZBrush. Рендер будет проводиться в Zbrush или в Keyshot. Также вы увидите как создаются карты displacement, normal и color для производственных пайплайнов (киноиндустрия, TV, игры). И конечно мы обсудим новые инструменты ZBrush 2020: кисти Extractor, кисть Deco, кисть History Recall, разберемся с Adjust Color и Mask by Polypaint, вы увидите, как проводится скульптинг и полипэинтинг на Morph UV поверхностях !
Продолжительность: 21:28:27
Качество видео: PCRec
Язык озвучки: Английский, Русский
Видео: AVC/H.264, 1920x1080, ~3280 kbps
Аудио: AAC, 2 ch, 195 kbps
Аудио 2: MP3, 1 ch, 192 kbps (отдельным файлом)

MediaInfo:

General
Complete name : K:\[The Gnomon workshop] Introduction to Zbrush 2020 [ENG-RUS]\01 Introduction.mp4
Format : MPEG-4
Format profile : Base Media
Codec ID : isom (isom/iso2/avc1/mp41)
File size : 57.3 MiB
Duration : 2 min 18 s
Overall bit rate : 3 483 kb/s
Writing application : Lavf57.25.100
Video
ID : 1
Format : AVC
Format/Info : Advanced Video Codec
Format profile : Main@L4.2
Format settings : 2 Ref Frames
Format settings, CABAC : No
Format settings, Reference fra : 2 frames
Codec ID : avc1
Codec ID/Info : Advanced Video Coding
Duration : 2 min 18 s
Bit rate : 3 281 kb/s
Width : 1 920 pixels
Height : 1 080 pixels
Display aspect ratio : 16:9
Frame rate mode : Constant
Frame rate : 59.940 (60000/1001) FPS
Color space : YUV
Chroma subsampling : 4:2:0
Bit depth : 8 bits
Scan type : Progressive
Bits/(Pixel*Frame) : 0.026
Stream size : 54.0 MiB (94%)
Color range : Limited
Color primaries : BT.709
Transfer characteristics : BT.709
Matrix coefficients : BT.709
Codec configuration box : avcC
Audio
ID : 2
Format : AAC LC
Format/Info : Advanced Audio Codec Low Complexity
Codec ID : mp4a-40-2
Duration : 2 min 18 s
Duration_LastFrame : -7 ms
Bit rate mode : Constant
Bit rate : 192 kb/s
Channel(s) : 2 channels
Channel layout : L R
Sampling rate : 48.0 kHz
Frame rate : 46.875 FPS (1024 SPF)
Compression mode : Lossy
Stream size : 3.22 MiB (6%)
Default : Yes
Alternate group : 1

Дополнительная информация:

Программное обеспечение: Zbrush 2020, KeyShot, Photoshop
Файлы примеров: Есть

Содержание курса:

00. Preview
01. Introduction
02. Quickstart
03. Interface Fundamentals
04. Camers
05. Folders
06. Hotkeys
07. Transpose Posing And Gizmo
08. Gizmo Deformers
09. Insert Mesh
10. ZRemesher
11. Dynamesh Zremesh
12. Import Meshes
13. Symmetry
14. Custom IMM Brushes
15. VDM Brushes
16. 3D Alphas
17. Topology Brush
18. Custom Interface
19. Nanomesh
20. Hardsurface
21. Alphas
22. Stroke Menu
23. HD Subdivision Levels
24. Layers
25. Noisemaker
26. Mesh Extraction And Shadowbox
27. 3D Text
28. ZSpheres
29. ZModeler
30. Array Mesh
31. Booleans
32. Polypaint
33. Adjust Polypaint MorphUV
34. Spotlight Texturing
35. Snapshot 3D
36. ZApplink
37. Photo Ref
38. Photoshop Passes
39. Materials
40. Environment Lighting
41. Keyshot
42. UV Master
43. Generate Maps
44. Fiber Mesh
45. Movies
46. Decimation Master
47. Posing
48. Sculptris Pro
49. Polygroup Polypaint
50. History Brush
51. Deco Brush
52. Polypaint Thickness
53. ZColor
54. Extractor Brushes
Скриншоты:
Скачать .torrent

Чтобы скачать торрент-файл

Madeleine Scott-Spencer - Introduction to Zbrush 2020 (2020)

Вам нужно Авторизоваться на сайте под своим логином. Если у Вы ещё не зарегистрированы, тогда Вам нужно пройти Регистрацию


Ost Berlin

Отличный курс! СПАСИБО!
Показать сообщения:    
Ответить на тему

Скачать Madeleine Scott-Spencer - Introduction to Zbrush 2020 (2020) торрент бесплатно. Отзывы, слив складчины.

Текущее время: Сегодня 19:45

Часовой пояс: GMT + 4



Вы не можете начинать темы
Вы не можете отвечать на сообщения
Вы не можете редактировать свои сообщения
Вы не можете удалять свои сообщения
Вы не можете голосовать в опросах
Вы не можете прикреплять файлы к сообщениям
Вы не можете скачивать файлы