Новые раздачи

02-Дек
02-Дек
02-Дек
01-Дек
01-Дек
01-Дек
01-Дек
01-Дек
01-Дек
01-Дек
01-Дек
01-Дек
01-Дек
30-Ноя
30-Ноя

Важное

Udemy, Иван Петриченко - Полный курс по JavaScript + React - с нуля до результата (2020) торрент

Ответить на тему
 
Автор Сообщение

Prescious ®

Udemy, Иван Петриченко | Полный курс по JavaScript + React - с нуля до результата (2020) PCRec - Автор: Иван Петриченко
Производство: Udemy
Жанр: Программирование, JavaScript, React
Описание:
Этот курс направлен на подробное изучение JavaScript без воды, но главное - немедленное применение его на практике.
Это значит, что вы получите материал для работы и мы вместе будем создавать реальные проекты шаг за шагом.
Вторая часть курса - это изучение самой популярной библиотеки на основе JavaScript - React.js со всеми необходимыми технологиями (в том числе и Redux).
Продолжительность: 41:24:57
Качество видео: PCRec
Видео: AVC/H.264, 1280x720, ~1098 Kbps
Аудио: AAC, 2 ch, 128 Kbps

MediaInfo:

Общее
Полное имя : Y:\javascript_full\02 Основы JavaScript\019 Callback- функции.mp4
Формат : MPEG-4
Профиль формата : Base Media
Идентификатор кодека : isom (isom/iso2/avc1/mp41)
Размер файла : 42,2 Мбайт
Продолжительность : 7 м. 23 с.
Общий поток : 798 Кбит/сек
Программа кодирования : Lavf58.12.100
Видео
Идентификатор : 1
Формат : AVC
Формат/Информация : Advanced Video Codec
Профиль формата : Main@L3.1
Настройки формата : CABAC / 4 Ref Frames
Параметр CABAC формата : Да
Параметр RefFrames формата : 4 кадра
Параметр GOP формата : M=4, N=60
Идентификатор кодека : avc1
Идентификатор кодека/Информация : Advanced Video Coding
Продолжительность : 7 м. 23 с.
Битрейт : 661 Кбит/сек
Номинальный битрейт : 3 000 Кбит/сек
Ширина : 1 280 пикселей
Высота : 720 пикселей
Соотношение сторон : 16:9
Режим частоты кадров : Постоянный
Частота кадров : 30,000 кадров/сек
Цветовое пространство : YUV
Субдискретизация насыщенности : 4:2:0
Битовая глубина : 8 бит
Тип развёртки : Прогрессивная
Бит/(Пиксели*Кадры) : 0.024
Размер потока : 35,0 Мбайт (83%)
Библиотека кодирования : x264 core 148
Codec configuration box : avcC
Аудио
Идентификатор : 2
Формат : AAC LC
Формат/Информация : Advanced Audio Codec Low Complexity
Идентификатор кодека : mp4a-40-2
Продолжительность : 7 м. 23 с.
Вид битрейта : Постоянный
Битрейт : 128 Кбит/сек
Каналы : 2 канала
Channel layout : L R
Частота : 48,0 КГц
Частота кадров : 46,875 кадров/сек (1024 SPF)
Метод сжатия : С потерями
Размер потока : 6,77 Мбайт (16%)
Default : Да
Alternate group : 1
Все дополнительные материалы присутствуют в раздаче.Скриншоты:
Скачать .torrent

Чтобы скачать торрент-файл

Udemy, Иван Петриченко - Полный курс по JavaScript + React - с нуля до результата (2020)

Вам нужно Авторизоваться на сайте под своим логином. Если у Вы ещё не зарегистрированы, тогда Вам нужно пройти Регистрацию


Показать сообщения:    
Ответить на тему

Скачать Udemy, Иван Петриченко - Полный курс по JavaScript + React - с нуля до результата (2020) торрент бесплатно. Отзывы, слив складчины.

Текущее время: Сегодня 08:00

Часовой пояс: GMT + 4



Вы не можете начинать темы
Вы не можете отвечать на сообщения
Вы не можете редактировать свои сообщения
Вы не можете удалять свои сообщения
Вы не можете голосовать в опросах
Вы не можете прикреплять файлы к сообщениям
Вы не можете скачивать файлы