SWIFTBOOK - Подборка платных курсов на русском языке по Swift 5 (2019) торрент

Ответить на тему
 
Автор Сообщение

Prescious ®

SWIFTBOOK | Подборка платных курсов на русском языке по Swift 5 (2019) PCRec- Автор: SWIFTBOOK
Жанр: Программирование
Описание:
Подборка разнообразных курсов по программированию на SWIFT.
Информация о присутствующих в раздаче курсах - под спойлером ниже.
Подробное описание курсов на сайте SWIFTBOOK.
Продолжительность: 95:24:59
Качество видео: PCRec
Видео: AVC/H.264, 1920x1080, ~957 kbit/s
Аудио: AAC, 2 ch, 256 kbit/s

MediaInfo:

Общее
Полное имя : X:\Sliff\[SWIFTBOOK] Платные видеокурсы на русском языке по Swift 5 (2019)\ 10. Курс Изучаем Класс CALayer\ 2 CA and CALayer.mp4
Формат : MPEG-4
Профиль формата : Base Media / Version 2
Идентификатор кодека : mp42 (mp42/mp41/isom/avc1)
Размер файла : 65,0 Мбайт
Продолжительность : 7 м. 28 с.
Режим общего битрейта : Переменный
Общий поток : 1 217 Кбит/сек
Дата кодирования : UTC 2016-12-22 09:26:38
Дата пометки : UTC 2016-12-22 09:26:38
Видео
Идентификатор : 1
Формат : AVC
Формат/Информация : Advanced Video Codec
Профиль формата : High@L4
Настройки формата : CABAC / 4 Ref Frames
Параметр CABAC формата : Да
Параметр RefFrames формата : 4 кадра
Идентификатор кодека : avc1
Идентификатор кодека/Информация : Advanced Video Coding
Продолжительность : 7 м. 28 с.
Битрейт : 957 Кбит/сек
Ширина : 1 920 пикселей
Высота : 1 080 пикселей
Соотношение сторон : 16:9
Режим частоты кадров : Постоянный
Частота кадров : 30,000 кадров/сек
Цветовое пространство : YUV
Субдискретизация насыщенности : 4:2:0
Битовая глубина : 8 бит
Тип развёртки : Прогрессивная
Бит/(Пиксели*Кадры) : 0.015
Размер потока : 51,1 Мбайт (79%)
Библиотека кодирования : x264 core 148 r10 b97ae06
Настройки программы : cabac=1 / ref=4 / deblock=1:0:0 / analyse=0x3:0x113 / me=hex / subme=8 / psy=1 / psy_rd=1.00:0.00 / mixed_ref=1 / me_range=16 / chroma_me=1 / trellis=2 / 8x8dct=1 / cqm=0 / deadzone=21,11 / fast_pskip=1 / chroma_qp_offset=-2 / threads=34 / lookahead_threads=5 / sliced_threads=0 / nr=0 / decimate=1 / interlaced=0 / bluray_compat=0 / stitchable=1 / constrained_intra=0 / bframes=3 / b_pyramid=2 / b_adapt=1 / b_bias=0 / direct=3 / weightb=1 / open_gop=0 / weightp=2 / keyint=infinite / keyint_min=30 / scenecut=40 / intra_refresh=0 / rc_lookahead=50 / rc=crf / mbtree=1 / crf=20.0 / qcomp=0.60 / qpmin=5 / qpmax=69 / qpstep=4 / vbv_maxrate=4950 / vbv_bufsize=13500 / crf_max=0.0 / nal_hrd=none / filler=0 / ip_ratio=1.40 / aq=1:1.00
Дата кодирования : UTC 2016-12-22 09:26:38
Дата пометки : UTC 2016-12-22 09:26:38
Цветовой диапазон : Limited
Основные цвета : BT.709
Характеристики трансфера : BT.709
Коэффициенты матрицы : BT.709
Codec configuration box : avcC
Аудио
Идентификатор : 2
Формат : AAC LC
Формат/Информация : Advanced Audio Codec Low Complexity
Идентификатор кодека : mp4a-40-2
Продолжительность : 7 м. 28 с.
Вид битрейта : Переменный
Битрейт : 256 Кбит/сек
Каналы : 2 канала
Channel layout : L R
Частота : 48,0 КГц
Частота кадров : 46,875 кадров/сек (1024 SPF)
Метод сжатия : С потерями
Размер потока : 13,7 Мбайт (21%)
Дата кодирования : UTC 2016-12-22 09:26:38
Дата пометки : UTC 2016-12-22 09:26:38

Список курсов:

1. Основы программирования
2. Гид по языку программирования SWIFT
3. Мои первые приложения
4. Фреймворк UIKit
5. Приложения на основе UITableView
6. Встроенные покупки (in-app purchases)
7. Изучаем основы Core Data
8. Изучаем Grand Central Dispatch
9. Application Programming Interface
10. Изучаем класс и подклассы CALayer
11. Изучаем систему Git. GitHub
12. Firebase - Наше первое приложение
13. Фреймворк для создания игр SpiriteKit
14. Sketch - Рисуем интерфейсы
15. Паттерны проектирования
16. Изучаем знаменитый паттерн MVC
17. Дополненная реальность. ARKit
18. Изучаем паттерн MVVM
19. Уведомления
20. Networking
21. TDD. Unit Testing
22. VK News Feed App
23. Работаем с CloudKit/iCloud
24. Фреймворк SWIFT
25. Принципы S.O.L.I.D
Скриншоты:
Скачать .torrent

Чтобы скачать торрент-файл

SWIFTBOOK - Подборка платных курсов на русском языке по Swift 5 (2019)

Вам нужно Авторизоваться на сайте под своим логином. Если у Вы ещё не зарегистрированы, тогда Вам нужно пройти Регистрацию


Показать сообщения:    
Ответить на тему

Скачать SWIFTBOOK - Подборка платных курсов на русском языке по Swift 5 (2019) торрент бесплатно. Отзывы, слив складчины.

Текущее время: Сегодня 15:21

Часовой пояс: GMT + 4



Вы не можете начинать темы
Вы не можете отвечать на сообщения
Вы не можете редактировать свои сообщения
Вы не можете удалять свои сообщения
Вы не можете голосовать в опросах
Вы не можете прикреплять файлы к сообщениям
Вы не можете скачивать файлы