3dex - How to Make a Stylized Outdoor Environment from Start to Finish (2019) торрент

Ответить на тему
 
Автор Сообщение

Prescious ®

3dex | How to Make a Stylized Outdoor Environment from Start to Finish (2019) PCRec [En, Ru] - Автор: 3dex
Производство: Gumroad
Жанр: Создание видео
Описание:
На этом курсе, вы научитесь простому и быстрому способу создания стилизованной сцены окружения с нуля и до финального этапа. Все этапы работы будут описываться пошагово и подробно. Мы проведем моделинг, скульптинг, текстурирование и сборку сцены в Unreal Engine 4. Особое внимание будет уделено освещению, вы узнаете общие принципы его настройки и специализированные инструменты Unreal Engine.
Продолжительность: 13:50:00
Качество видео: PCRec
Язык озвучки: Английский, Русский
Видео: AVC/H.264, 1920x1080, ~1957 kbps
Аудио: AAC, 2 ch, 192 kbps
Аудио 2: MP3, 1 ch, 192 kbps (отдельным файлом)

MediaInfo:

General
Complete name : K:\[Gumroad] How to Make a Stylized Outdoor Environment from Start to Finish [ENG-RUS]\001 - Introduction to Course.mp4
Format : MPEG-4
Format profile : Base Media
Codec ID : isom (isom/iso2/avc1/mp41)
File size : 62.4 MiB
Duration : 4 min 2 s
Overall bit rate mode : Variable
Overall bit rate : 2 155 kb/s
Writing application : Lavf58.20.100
Video
ID : 1
Format : AVC
Format/Info : Advanced Video Codec
Format profile : High@L4
Format settings : CABAC / 4 Ref Frames
Format settings, CABAC : Yes
Format settings, Reference fra : 4 frames
Codec ID : avc1
Codec ID/Info : Advanced Video Coding
Duration : 4 min 2 s
Bit rate mode : Variable
Bit rate : 1 957 kb/s
Maximum bit rate : 4 500 kb/s
Width : 1 920 pixels
Height : 1 080 pixels
Display aspect ratio : 16:9
Frame rate mode : Constant
Frame rate : 25.000 FPS
Color space : YUV
Chroma subsampling : 4:2:0
Bit depth : 8 bits
Scan type : Progressive
Bits/(Pixel*Frame) : 0.038
Stream size : 56.6 MiB (91%)
Codec configuration box : avcC
Audio
ID : 2
Format : AAC LC
Format/Info : Advanced Audio Codec Low Complexity
Codec ID : mp4a-40-2
Duration : 4 min 2 s
Bit rate mode : Constant
Bit rate : 192 kb/s
Channel(s) : 2 channels
Channel layout : L R
Sampling rate : 44.1 kHz
Frame rate : 43.066 FPS (1024 SPF)
Compression mode : Lossy
Stream size : 5.56 MiB (9%)
Default : Yes
Alternate group : 1

Дополнительная информация:

Программное обеспечение: Autodesk Maya, Zbrush, Substance Painter, Substance Designer, Unreal Engine 4
Файлы примеров: Есть

Содержание курса:

1. Создание моделей и UV с использованием Autodesk Maya.
2. Скульптинг в Zbrush.
3. Текстурирование в Substance Painter.
4. Создание процедурных материалов с использованием Substance Designer.
5. Импорт моделей и текстур в Unreal Engine 4.
6. Создание материалов и образцов в UE4.
7. Создание ландшафтов с использованием Blend Materials .
8. Эффект течения воды в UE4.
9. Эффект шевеления листвы и травы от порывов ветра в UE4.
10. Подготовка моделей с запекание освещения в UE4.
11. Финализация освещения и создание скриншотов.

Бонусные видео:

1. Основы Zbrush, Autodesk Maya, Substance Painter, Substance Designer, и Unreal Engine 4.
2. Пошаговое видео по созданию стилизованного смарт материала для текстур в Substance Painter.
3. Кастомизация кистей Zbrush.
Знания, полученные на этом курсе, помогут вам создавать и собирать практически любой тип окружения в Unreal Engine 4.
Вы сможете создавать процедурные материалы в Substance Designer.
Научитесь правильно готовить модели к использованию в игровых движках.
Скриншоты:
Скачать .torrent

Чтобы скачать торрент-файл

3dex - How to Make a Stylized Outdoor Environment from Start to Finish (2019)

Вам нужно Авторизоваться на сайте под своим логином. Если у Вы ещё не зарегистрированы, тогда Вам нужно пройти Регистрацию


Показать сообщения:    
Ответить на тему

Скачать 3dex - How to Make a Stylized Outdoor Environment from Start to Finish (2019) торрент бесплатно. Отзывы, слив складчины.

Текущее время: Сегодня 14:38

Часовой пояс: GMT + 4



Вы не можете начинать темы
Вы не можете отвечать на сообщения
Вы не можете редактировать свои сообщения
Вы не можете удалять свои сообщения
Вы не можете голосовать в опросах
Вы не можете прикреплять файлы к сообщениям
Вы не можете скачивать файлы