Александра Усявичене - Жизнь без страха (2017) торрент

Ответить на тему
 
Автор Сообщение

Prescious ®

Александра Усявичене | Жизнь без страха (2017) CamRip - Автор: Александра Усявичене
Жанр: Видеокурсы
Описание:
Хотите узнать откуда берутся страхи и как от них избавиться раз и навсегда?
Откуда берутся страхи
Казалось бы страхи присущи только детям. Но вот и мы взрослые порой испытываем множество различных страхов, которые мешают нам продвигаться по жизни. Часто наши страхи не имеют под собой какого-либо обоснования, но при этом они доставляют нам огромное количество дискомфорта.
В древние времена реакция нападения/бегства были нашим защитным механизмом и помогали нам выжить как физическое существо, как раса, как человечество. Мы действительно выжили. Нам не нужно спасаться бегством, чтобы защититься, защищать свою жизнь, не быть убитыми, чтобы выжить. Мы уже сделали это. Но теперь на смену реакции бегства пришла эмоция страха. Природный механизм, сформированный эволюцией, теперь мешает нам. Многие страхи не оберегают нас, а наоборот делают уязвимыми. По большей части мы переживаем по поводу мысленного изображения, а не реальных событий.
Каждый из нас чего-то да боится в этой жизни. Просто у кого это страхи небольшие, а у кого-то переходят все рамки. Реально ли избавиться от всех страхов? Вполне возможно, что нет. Потому что по мере вашего движения по жизни будут меняться обстоятельства и ситуации. Но вот взять своих страхи под контроль, уметь их распознавать, осознавать, откуда они берутся и как с ними эффективно работать - все это можно при помощи определенных техник, упражнений и медитаций.

Продолжение описания:

Представляем вам вебинар «Жизнь без страха»
Вебинар «Жизнь без страха» – это живой вебинар, в ходе которого с вами поделятся эффективными инструментами для того, чтобы справляться с любыми вашими страхами.
Александра Усявичене — инструктор метода Сильва в Литве, Латвии и Эстонии. Опыт преподавания — 11 лет. За это время Александра уже обучила более 1000 человек методу Сильва.
Знания Александры в этой области просто безграничны, а огромное количество интересных историй и примеров из жизни доказывает, что обучение у Александры дает колоссальные результаты. Кроме семинаров, Александра читает лекции для учителей и родителей, участвует в молодежных проектах, знакомит студентов и учащихся с практикой самореализации.
Продолжительность: 03:19:04
Качество видео: CamRip
Видео: AVC/H.264, 1280x720, ~386 Kbps
Аудио: AAC, 2 ch, 96 kbs

MediaInfo:

Video
ID : 1
Format : AVC
Format/Info : Advanced Video Codec
Format profile : High@L3.1
Format settings, CABAC : Yes
Format settings, ReFrames : 5 frames
Codec ID : avc1
Codec ID/Info : Advanced Video Coding
Duration : 3 h 19 min
Bit rate : 386 kb/s
Width : 1 280 pixels
Height : 720 pixels
Display aspect ratio : 16:9
Frame rate mode : Constant
Frame rate : 15.000 FPS
Color space : YUV
Chroma subsampling : 4:2:0
Bit depth : 8 bits
Scan type : Progressive
Bits/(Pixel*Frame) : 0.028
Stream size : 549 MiB (82%)
Writing library : x264 core 125 r135+1M 17de9bf
Encoding settings : cabac=1 / ref=5 / deblock=1:0:0 / analyse=0x3:0x113 / me=umh / subme=8 / psy=1 / psy_rd=1.00:0.00 / mixed_ref=1 / me_range=16 / chroma_me=1 / trellis=1 / 8x8dct=1 / cqm=0 / deadzone=21,11 / fast_pskip=1 / chroma_qp_offset=-2 / threads=6 / lookahead_threads=1 / sliced_threads=0 / nr=0 / decimate=1 / interlaced=0 / bluray_compat=0 / constrained_intra=0 / bframes=3 / b_pyramid=2 / b_adapt=2 / b_bias=0 / direct=3 / weightb=1 / open_gop=0 / weightp=2 / keyint=250 / keyint_min=15 / scenecut=40 / intra_refresh=0 / rc_lookahead=50 / rc=crf / mbtree=1 / crf=22.0 / qcomp=0.60 / qpmin=0 / qpmax=69 / qpstep=4 / ip_ratio=1.40 / aq=1:1.00
Audio
ID : 2
Format : AAC
Format/Info : Advanced Audio Codec
Format profile : LC
Codec ID : 40
Duration : 3 h 19 min
Bit rate mode : Variable
Bit rate : 78.8 kb/s
Maximum bit rate : 96.0 kb/s
Channel(s) : 2 channels
Channel(s)_Original : 1 channel
Channel positions : Front: C
Sampling rate : 22.05 kHz
Frame rate : 21.533 FPS (1024 spf)
Compression mode : Lossy
Stream size : 112 MiB (17%)
Default : Yes
Alternate group : 1
Скриншоты:
Скачать .torrent

Чтобы скачать торрент-файл

Александра Усявичене - Жизнь без страха (2017)

Вам нужно Авторизоваться на сайте под своим логином. Если у Вы ещё не зарегистрированы, тогда Вам нужно пройти Регистрацию


Показать сообщения:    
Ответить на тему

Скачать Александра Усявичене - Жизнь без страха (2017) торрент бесплатно. Отзывы, слив складчины.

Текущее время: Сегодня 16:03

Часовой пояс: GMT + 4



Вы не можете начинать темы
Вы не можете отвечать на сообщения
Вы не можете редактировать свои сообщения
Вы не можете удалять свои сообщения
Вы не можете голосовать в опросах
Вы не можете прикреплять файлы к сообщениям
Вы не можете скачивать файлы