OTUS, Кристина Кучерова - MS SQL Server разработчик (2020) торрент

Ответить на тему
 
Автор Сообщение

Prescious ®

OTUS, Кристина Кучерова | MS SQL Server разработчик (2020) PCRec - Автор: Кристина Кучерова
Производство: OTUS
Жанр: Базы данных, программирование
Описание:
Что даст вам этот курс:
Во время курса будем подробно разбирать язык запросов и внутренние процессы СУБД, происходящие на всех этапах работы с запросом. Курс позволит понять детали процессов и получить чёткое представление, что делает тот или иной код, где могут возникнуть потенциальные проблемы, как их можно разрешить.
Подробно рассмотрим оптимизацию кода, как нужно писать, если у вас миллиарды данных, расскажем о популярных граблях, чтобы вы смогли их обойти.

Продолжение описания:

Этот курс предназначен для:
— разработчиков с опытом работы с базами на уровне «делал и использовал, но как внутри работает не знаю» (например, через ORM);
— разработчиков с небольшим опытом работы с базами данных и желанием продвинуться дальше.
После обучения вы сможете:
— разрабатывать на SQL;
— проектировать БД и понимать все нюансы;
— анализировать и оптимизировать производительности запросов;
— писать сложные хранимые процедуры, функции и триггеры;
— читать план запроса.
Выпускной проект — создание и оптимизация собственной базы данных (для своей компании/стартапа). Преподаватель поможет с выбором темы и подскажет, как уменьшить scope работ, а у вас появится возможность получить обратную связь и отработать полученные знания на реальном материале
Продолжительность: 71:23:39
Качество видео: PCRec
Видео: AVC/H.264, 1366x768, ~156 кбит/с
Аудио: AAC, 2 ch, 52 кбит/с

MediaInfo:

Общее
Полное имя : X:\Sliff\[OTUS] MS SQL Server разработчик (Кристина Кучерова)\1 модуль\4 Подзапросы и WITH в SQL\4 Подзапросы и WITH в SQL.mp4
Формат : MPEG-4
Профиль формата : Base Media / Version 2
Идентификатор кодека : mp42 (isom/mp42)
Размер файла : 176 Мбайт
Продолжительность : 1 ч. 56 м.
Режим общего битрейта : Переменный
Общий поток : 210 Кбит/сек
Дата кодирования : UTC 2019-02-14 19:28:45
Дата пометки : UTC 2019-02-14 19:28:45
Видео
Идентификатор : 1
Формат : AVC
Формат/Информация : Advanced Video Codec
Профиль формата : High@L5
Настройки формата : CABAC / 11 Ref Frames
Параметр CABAC формата : Да
Параметр RefFrames формата : 11 кадров
Идентификатор кодека : avc1
Идентификатор кодека/Информация : Advanced Video Coding
Продолжительность : 1 ч. 56 м.
Битрейт : 156 Кбит/сек
Ширина : 1 366 пикселей
Высота : 768 пикселей
Соотношение сторон : 16:9
Режим частоты кадров : Постоянный
Частота кадров : 25,000 кадров/сек
Цветовое пространство : YUV
Субдискретизация насыщенности : 4:2:0
Битовая глубина : 8 бит
Тип развёртки : Прогрессивная
Бит/(Пиксели*Кадры) : 0.006
Размер потока : 131 Мбайт (74%)
Заголовок : H.264/AVC video
Дата кодирования : UTC 2019-02-14 19:28:45
Дата пометки : UTC 2019-02-14 19:28:45
Codec configuration box : avcC
Аудио
Идентификатор : 2
Формат : AAC LC
Формат/Информация : Advanced Audio Codec Low Complexity
Идентификатор кодека : mp4a-40-2
Продолжительность : 1 ч. 56 м.
Вид битрейта : Переменный
Битрейт : 52,0 Кбит/сек
Максимальный битрейт : 119 Кбит/сек
Каналы : 1 канал
Channel layout : C
Частота : 32,0 КГц
Частота кадров : 31,250 кадров/сек (1024 SPF)
Метод сжатия : С потерями
Размер потока : 43,4 Мбайт (25%)
Заголовок : AAC audio
Дата кодирования : UTC 2019-02-14 19:28:45
Дата пометки : UTC 2019-02-14 19:28:45
Скриншоты:
Скачать .torrent

Чтобы скачать торрент-файл

OTUS, Кристина Кучерова - MS SQL Server разработчик (2020)

Вам нужно Авторизоваться на сайте под своим логином. Если у Вы ещё не зарегистрированы, тогда Вам нужно пройти Регистрацию


Показать сообщения:    
Ответить на тему

Скачать OTUS, Кристина Кучерова - MS SQL Server разработчик (2020) торрент бесплатно. Отзывы, слив складчины.

Текущее время: Сегодня 23:59

Часовой пояс: GMT + 4



Вы не можете начинать темы
Вы не можете отвечать на сообщения
Вы не можете редактировать свои сообщения
Вы не можете удалять свои сообщения
Вы не можете голосовать в опросах
Вы не можете прикреплять файлы к сообщениям
Вы не можете скачивать файлы