Фролова Ольга - Психотипы в отношениях (2017) торрент

Ответить на тему
 
Автор Сообщение

Prescious ®

Фролова Ольга | Психотипы в отношениях (2017) PCRec - Автор: Фролова Ольга
Жанр: Видеокурсы
Описание:
Курс по созданию счастливых и гармоничных отношений:
Психотипы в отношениях.
- Как понять друг друга, избежать ссор и конфликтов
- Как найти идеального спутника жизни или "реанимировать" свой брак
- Как исправить главную ошибку в отношениях
Курс по практическому применению психотипирования!
Быстрые и простые методы решить самые больные проблемы:
- Устали жить жизнью, которую вам навязали окружающие?
- Теряете силы и энергию на людей, которые больше получают от вас чем дают?
- Близкие игнорируют ваши желания?
- Мужа не согнать с дивана?
- Знаете, что вы недополучаете от жизни того, чего достойны?
Есть легкий способ выйти из этих проблем. Убрать все, что давит и отнимает силы С помощью точных знаний и простых инструментов. В курсе "Психотипы в отношениях"!
Бонусы:
- Скоростное психотипирование
- Высшее Я цели, ценности, предназначение
Продолжительность: 07:00:00
Качество видео: PCRec
Видео: AVC/H.264, 484X360 kbps, ~184 Kbps
Аудио: AAC, 2 ch, 96 kbs

MediaInfo:

Video
ID : 1
Format : AVC
Format/Info : Advanced Video Codec
Format profile : Baseline@L3
Format settings, CABAC : No
Format settings, ReFrames : 1 frame
Format settings, GOP : M=1, N=60
Codec ID : avc1
Codec ID/Info : Advanced Video Coding
Duration : 27 min
Bit rate : 184 kb/s
Maximum bit rate : 417 kb/s
Width : 494 pixels
Height : 360 pixels
Display aspect ratio : 1.372
Frame rate mode : Constant
Frame rate : 30.000 FPS
Color space : YUV
Chroma subsampling : 4:2:0
Bit depth : 8 bits
Scan type : Progressive
Bits/(Pixel*Frame) : 0.035
Stream size : 36.4 MiB (65%)
Tagged date : UTC 2017-07-05 01:47:08
Audio
ID : 2
Format : AAC
Format/Info : Advanced Audio Codec
Format profile : LC
Codec ID : 40
Duration : 27 min
Bit rate mode : Variable
Bit rate : 96.0 kb/s
Maximum bit rate : 102 kb/s
Channel(s) : 2 channels
Channel positions : Front: L R
Sampling rate : 44.1 kHz
Frame rate : 43.066 FPS (1024 spf)
Compression mode : Lossy
Stream size : 19.0 MiB (34%)
Title : IsoMedia File Produced by Google, 5-11-2011
Language : English
Encoded date : UTC 2017-07-05 01:47:06
Tagged date : UTC 2017-07-05 01:47:08
Скриншоты:
Скачать .torrent

Чтобы скачать торрент-файл

Фролова Ольга - Психотипы в отношениях (2017)

Вам нужно Авторизоваться на сайте под своим логином. Если у Вы ещё не зарегистрированы, тогда Вам нужно пройти Регистрацию


Показать сообщения:    
Ответить на тему

Скачать Фролова Ольга - Психотипы в отношениях (2017) торрент бесплатно. Отзывы, слив складчины.

Текущее время: Сегодня 15:40

Часовой пояс: GMT + 4



Вы не можете начинать темы
Вы не можете отвечать на сообщения
Вы не можете редактировать свои сообщения
Вы не можете удалять свои сообщения
Вы не можете голосовать в опросах
Вы не можете прикреплять файлы к сообщениям
Вы не можете скачивать файлы