Любовь Запорощенко - Предметы и помещение как носители негативной информации (2017) торрент

Ответить на тему
 
Автор Сообщение

Prescious ®

Любовь Запорощенко | Предметы и помещение как носители негативной информации (2017) PCRec - Автор: Любовь Запорощенко
Жанр: Видеокурсы
Описание:
Предметы и помещение как носители негативной информации (2017) Мастер-класс
В программе: Неорганические носители негативной информации о заболеваниях и негативных событиях.
Помещение, рукотворные предметы, природные кристаллы и минералы – друзья или враги?
Как знать, что носитель негативной информации – предмет или помещение?
Каков правильный алгоритм работы по очищению от негативной информации на материальном носителе?
Продолжительность: 03:49:47
Качество видео: PCRec
Видео: AVC/H.264, 1920x1080, ~1880 kbps
Аудио: AAC, 2 ch, 128 kbps

MediaInfo:

Video
ID : 1
Format : AVC
Format/Info : Advanced Video Codec
Format profile : Baseline@L4
Format settings, CABAC : No
Format settings, ReFrames : 2 frames
Format settings, GOP : M=1, N=30
Codec ID : avc1
Codec ID/Info : Advanced Video Coding
Duration : 1 h 41 min
Source duration : 1 h 41 min
Bit rate : 2 030 kb/s
Width : 1 920 pixels
Height : 1 080 pixels
Display aspect ratio : 16:9
Frame rate mode : Constant
Frame rate : 29.970 (29970/1000) FPS
Color space : YUV
Chroma subsampling : 4:2:0
Bit depth : 8 bits
Scan type : Progressive
Bits/(Pixel*Frame) : 0.033
Stream size : 1.44 GiB (94%)
Source stream size : 1.44 GiB (94%)
Encoded date : UTC 2017-06-15 20:52:29
Tagged date : UTC 2017-06-15 20:52:29
mdhd_Duration : 6078606
Audio
ID : 2
Format : AAC
Format/Info : Advanced Audio Codec
Format profile : LC
Codec ID : 40
Duration : 1 h 41 min
Bit rate mode : Constant
Bit rate : 128 kb/s
Channel(s) : 2 channels
Channel positions : Front: L R
Sampling rate : 48.0 kHz
Frame rate : 46.875 FPS (1024 spf)
Compression mode : Lossy
Stream size : 91.8 MiB (6%)
Encoded date : UTC 2017-06-15 20:52:29
Tagged date : UTC 2017-06-15 20:52:29
mdhd_Duration : 6078635
Скриншоты:
Скачать .torrent

Чтобы скачать торрент-файл

Любовь Запорощенко - Предметы и помещение как носители негативной информации (2017)

Вам нужно Авторизоваться на сайте под своим логином. Если у Вы ещё не зарегистрированы, тогда Вам нужно пройти Регистрацию


Показать сообщения:    
Ответить на тему

Скачать Любовь Запорощенко - Предметы и помещение как носители негативной информации (2017) торрент бесплатно. Отзывы, слив складчины.

Текущее время: Сегодня 19:32

Часовой пояс: GMT + 4



Вы не можете начинать темы
Вы не можете отвечать на сообщения
Вы не можете редактировать свои сообщения
Вы не можете удалять свои сообщения
Вы не можете голосовать в опросах
Вы не можете прикреплять файлы к сообщениям
Вы не можете скачивать файлы