Simon Fuchs - Military Radio Tutorial Part 1-3 (2018) торрент

Ответить на тему
 
Автор Сообщение

Prescious ®

Simon Fuchs | Military Radio Tutorial Part 1-3 (2018) PCRec - Автор: Simon Fuchs
Производство: Gumroad
Жанр: Создание видео
Описание:
Вы подумываете о карьере 3д-художника в индустрии видео игр? Хотите работать быстрее, эффективнее и изучить новейшие техники 3д моделирования, текстурирования игровых ассетов? Этот курс поможет вам изучить и научиться применять все аспекты и техники, позволяющие создавать высококачественные PBR ассеты!

Продолжение описания:

В данном курсе вас ждет моделирование, развертка, запекание карт, текстурирование и рендер военного радио, по всем текущим стандартам игровой индустрии! Каждое действие будет прокомментировано, без каких-либо тайм-лапсов
Продолжительность: 28:31:04
Качество видео: PCRec
Видео: AVC/H.264, 1920x1080, ~1454kbps
Аудио: MP3, 2 ch, 256kbps (отдельным файлом)

MediaInfo:

General
Unique ID : 239113058026116463205187253952851579865 (0xB3E37FF6796EAAA1A39F517E10F593D9)
Complete name : K:\[Gumroad] Military Radio Tutorial Part 1-3 [RUS]\00 - Intro to Maya and Zbrush.mkv
Format : Matroska
Format version : Version 4
File size : 1.97 GiB
Duration : 3 h 14 min
Overall bit rate : 1 454 kb/s
Encoded date : UTC 2018-12-07 08:34:20
Writing application : mkvmerge v8.2.0 ('World of Adventure') 64bit
Writing library : libebml v1.3.1 + libmatroska v1.4.2
Video
ID : 1
Format : AVC
Format/Info : Advanced Video Codec
Format profile : Baseline@L4.1
Format settings : 1 Ref Frames
Format settings, CABAC : No
Format settings, Reference fra : 1 frame
Codec ID : V_MPEG4/ISO/AVC
Duration : 3 h 14 min
Bit rate : 1 196 kb/s
Width : 1 920 pixels
Height : 1 080 pixels
Display aspect ratio : 16:9
Frame rate mode : Constant
Frame rate : 30.000 FPS
Standard : NTSC
Color space : YUV
Chroma subsampling : 4:2:0
Bit depth : 8 bits
Scan type : Progressive
Bits/(Pixel*Frame) : 0.019
Stream size : 1.62 GiB (82%)
Language : English
Default : Yes
Forced : No
Color range : Limited
Audio
ID : 2
Format : MPEG Audio
Format version : Version 1
Format profile : Layer 3
Codec ID : A_MPEG/L3
Codec ID/Hint : MP3
Duration : 3 h 14 min
Bit rate mode : Constant
Bit rate : 256 kb/s
Channel(s) : 2 channels
Sampling rate : 44.1 kHz
Frame rate : 38.281 FPS (1152 SPF)
Compression mode : Lossy
Stream size : 356 MiB (18%)
Default : Yes
Forced : No

Дополнительная информация:

Программное обеспечение: Maya 2018, Zbrush, Substance Painter 2018, Marmoset Toolbag
Файлы примеров: Есть
Скриншоты:
Скачать .torrent

Чтобы скачать торрент-файл

Simon Fuchs - Military Radio Tutorial Part 1-3 (2018)

Вам нужно Авторизоваться на сайте под своим логином. Если у Вы ещё не зарегистрированы, тогда Вам нужно пройти Регистрацию


Показать сообщения:    
Ответить на тему

Скачать Simon Fuchs - Military Radio Tutorial Part 1-3 (2018) торрент бесплатно. Отзывы, слив складчины.

Текущее время: Сегодня 18:48

Часовой пояс: GMT + 4



Вы не можете начинать темы
Вы не можете отвечать на сообщения
Вы не можете редактировать свои сообщения
Вы не можете удалять свои сообщения
Вы не можете голосовать в опросах
Вы не можете прикреплять файлы к сообщениям
Вы не можете скачивать файлы