Пол Новак - Курс по развитию способности концентрироваться (2015) торрент

Ответить на тему
 
Автор Сообщение

Prescious ®

Пол Новак | Курс по развитию способности концентрироваться (2015) PCRec - Автор: Пол Новак
Жанр: Видеокурсы
Описание:
Курс по развитию способности концентрироваться. Узнайте, как развить вашу способность концентрироваться на чтении, работе, учёбе и жизни. Если вам сложно оставаться сосредоточенными, этот курс специально для вас!
Поскольку то, на чем человек концентрируется, существенно влияет на его эмоциональное состояние, умение сосредоточиваться на важных вещах и не отвлекаться на малозначительные мелочи может в корне изменить вашу жизнь: вы станете более продуктивными, сможете реализовать карьерные и личные цели и добиться отличных результатов.
Важно
К курсу не прилагается транскрипция с текстом, что вызывает некоторую сложность в переводе, поскольку нужно выполнять перевод «на слух». У автора курса прекрасный темп речи и чёткая структурированность в преподнесении информации, что позволяет подготовить понятный и интересный перевод. Безусловно, из этого курса можно почерпнуть для себя много нового и интересного.
Продолжительность: 03:53:34
Качество видео: PCRec
Язык озвучки: Русский (перевод с английского: Born free)
Видео: AVC/H.264, 1280x720, ~338 Kbps
Аудио: MP3, 1 ch, 64 Kbps

MediaInfo:

Video
ID : 2
Format : AVC
Format/Info : Advanced Video Codec
Format profile : Baseline@L3.1
Format settings, CABAC : No
Format settings, ReFrames : 3 frames
Format settings, GOP : M=1, N=24
Codec ID : V_MPEG4/ISO/AVC
Duration : 6 min
Bit rate : 338 kb/s
Width : 1 280 pixels
Height : 720 pixels
Display aspect ratio : 16:9
Frame rate mode : Constant
Frame rate : 30.000 FPS
Standard : NTSC
Color space : YUV
Chroma subsampling : 4:2:0
Bit depth : 8 bits
Scan type : Progressive
Bits/(Pixel*Frame) : 0.012
Stream size : 15.2 MiB (82%)
Language : English
Default : Yes
Forced : No
Color range : Limited
Audio
ID : 1
Format : MPEG Audio
Format version : Version 1
Format profile : Layer 3
Codec ID : A_MPEG/L3
Codec ID/Hint : MP3
Duration : 6 min
Bit rate mode : Constant
Bit rate : 64.0 kb/s
Channel(s) : 1 channel
Sampling rate : 48.0 kHz
Compression mode : Lossy
Stream size : 2.88 MiB (16%)
Writing library : LAME3.99.5
Default : Yes
Forced : No
Скриншоты:
Скачать .torrent

Чтобы скачать торрент-файл

Пол Новак - Курс по развитию способности концентрироваться (2015)

Вам нужно Авторизоваться на сайте под своим логином. Если у Вы ещё не зарегистрированы, тогда Вам нужно пройти Регистрацию


Показать сообщения:    
Ответить на тему

Скачать Пол Новак - Курс по развитию способности концентрироваться (2015) торрент бесплатно. Отзывы, слив складчины.

Текущее время: Сегодня 15:47

Часовой пояс: GMT + 4



Вы не можете начинать темы
Вы не можете отвечать на сообщения
Вы не можете редактировать свои сообщения
Вы не можете удалять свои сообщения
Вы не можете голосовать в опросах
Вы не можете прикреплять файлы к сообщениям
Вы не можете скачивать файлы