Николай Козлов - Как работать, чтобы хотелось жить? Как жить, чтобы хотелось работать? (2015) торрент

Ответить на тему
 
Автор Сообщение

Prescious ®

Николай Козлов | Как работать, чтобы хотелось жить? Как жить, чтобы хотелось работать? (2015) CamRip - Автор: Николай Козлов
Жанр: Видеокурсы
Описание:
Как работать, чтобы хотелось жить? Как жить, чтобы хотелось работать?
Это курс тайм-менеджмента, но с учетом особенностей славянского менталитета. Здесь вы подружитесь с учетом времени, потому что будете учить себя отдыхать. Вы узнаете, как возможно эффективно работать хоть по 16 часов в сути и при этом никогда не уставать.
Cодержание курса:
1. Человек-результатник
2. Планирование по системе 4 на 25%
3. Дела дня
4. Здоровый сон
5. Бодрое утро
6. Правильный вечер
Продолжительность: 01:25:02
Качество видео: CamRip
Видео: AVC/H.264, 1280x720, ~808 Kbps
Аудио: AAC, 2 ch, 160 Kbps

MediaInfo:

Video
ID : 1
Format : AVC
Format/Info : Advanced Video Codec
Format profile : High@L4.1
Format settings, CABAC : Yes
Format settings, ReFrames : 5 frames
Codec ID : avc1
Codec ID/Info : Advanced Video Coding
Duration : 13 min
Bit rate : 808 kb/s
Width : 1 280 pixels
Height : 720 pixels
Display aspect ratio : 16:9
Frame rate mode : Constant
Frame rate : 25.000 FPS
Color space : YUV
Chroma subsampling : 4:2:0
Bit depth : 8 bits
Scan type : Progressive
Bits/(Pixel*Frame) : 0.035
Stream size : 78.2 MiB (79%)
Writing library : x264 core 142
Encoding settings : cabac=1 / ref=5 / deblock=1:0:0 / analyse=0x3:0x113 / me=umh / subme=8 / psy=1 / psy_rd=1.00:0.00 / mixed_ref=1 / me_range=16 / chroma_me=1 / trellis=1 / 8x8dct=1 / cqm=0 / deadzone=21,11 / fast_pskip=1 / chroma_qp_offset=-2 / threads=3 / lookahead_threads=1 / sliced_threads=0 / nr=0 / decimate=1 / interlaced=0 / bluray_compat=0 / constrained_intra=0 / bframes=3 / b_pyramid=2 / b_adapt=2 / b_bias=0 / direct=3 / weightb=1 / open_gop=0 / weightp=2 / keyint=50 / keyint_min=5 / scenecut=40 / intra_refresh=0 / rc_lookahead=50 / rc=crf / mbtree=1 / crf=20.0 / qcomp=0.60 / qpmin=0 / qpmax=69 / qpstep=4 / vbv_maxrate=3000 / vbv_bufsize=12000 / crf_max=0.0 / nal_hrd=none / filler=0 / ip_ratio=1.40 / aq=1:1.00
Tagged date : UTC 2016-06-21 10:14:46
Audio
ID : 2
Format : AAC
Format/Info : Advanced Audio Codec
Format profile : LC
Codec ID : 40
Duration : 13 min
Bit rate mode : Variable
Bit rate : 160 kb/s
Maximum bit rate : 3 000 kb/s
Channel(s) : 2 channels
Channel positions : Front: L R
Sampling rate : 48.0 kHz
Frame rate : 46.875 FPS (1024 spf)
Compression mode : Lossy
Stream size : 15.5 MiB (16%)
Default : Yes
Alternate group : 1
Tagged date : UTC 2016-06-21 10:14:46
Other #1
ID : 65536
Type : Hint
Format : RTP
Codec ID : rtp
Duration : 13 min
Encoded date : UTC 2016-06-21 10:14:45
Tagged date : UTC 2016-06-21 10:14:46
Other #2
ID : 65537
Type : Hint
Format : RTP
Codec ID : rtp
Duration : 13 min
Encoded date : UTC 2016-06-21 10:14:46
Tagged date : UTC 2016-06-21 10:14:46
Bit rate mode : VBR
Скриншоты:
Скачать .torrent

Чтобы скачать торрент-файл

Николай Козлов - Как работать, чтобы хотелось жить? Как жить, чтобы хотелось работать? (2015)

Вам нужно Авторизоваться на сайте под своим логином. Если у Вы ещё не зарегистрированы, тогда Вам нужно пройти Регистрацию


Показать сообщения:    
Ответить на тему

Скачать Николай Козлов - Как работать, чтобы хотелось жить? Как жить, чтобы хотелось работать? (2015) торрент бесплатно. Отзывы, слив складчины.

Текущее время: Сегодня 18:23

Часовой пояс: GMT + 4



Вы не можете начинать темы
Вы не можете отвечать на сообщения
Вы не можете редактировать свои сообщения
Вы не можете удалять свои сообщения
Вы не можете голосовать в опросах
Вы не можете прикреплять файлы к сообщениям
Вы не можете скачивать файлы