Михаил Рысак - Дофаминовый Рестарт. Будь голодным! (2017) торрент

Ответить на тему
 
Автор Сообщение

Prescious ®

Михаил Рысак | Дофаминовый Рестарт. Будь голодным! (2017) CamRip - Автор: Михаил Рысак
Жанр: Видеокурсы
Описание:
У любого человека состояние его дофаминергической системы служит основой его успехов. Психика и тело никогда не выдаст ресурс на выполнение задачи, если в этом нет смысла. А всё, что не вызывает у вас всплесков дофамина с точки зрения мозга - бессмысленно.
ЧЕМ ТЕМА ДОФАМИНА ОСОБЕННО ИНТЕРЕСНА?
Я считаю, что дофаминовая система - самая интересная часть гормональной системы человека.
Дофамин - наше всё. Ценный ресурс, являющийся мостиком к успеху через пропасть.
Уровень дофамина высок - тебе море по колено, горы по плечу.
Уровень дофамина низок - ты встрял.
А чем интересна работа над своей дофаминергической системой?
Мгновенные результаты.
Как только уровень дофамина повышается, ты получаешь моментальное влияние этого параметра на свою жизнь. Денег становится больше, тренировки продуктивнее, общение с людьми ярче. В общем, дела сразу идут в гору.
Работа над дофаминергической системой не требует денег.
Не нужно покупать десятки добавок, корректировать питание. Иметь высокий уровень дофамина - это очень дешево. А имея этот высокий уровень дофамина появляются возможности зарабатывать больше. Эта разница создаёт огромную выгоду.

Продолжение описания:

Короткий срок изменений.
3-4 недели - срок, за который можно привести дофаминергическую систему к состоянию, в каковой она находится у ребенка или гения.
Самые глобальные изменения.
Серьезно, изменения возникающие вследствие повышения уровня дофамина и чувствительности рецепторов к нему несут самые сильные изменения в твою жизнь, чем что-либо еще. При условии что ты этот ресурс направляешь на улучшение качества своей жизни, разумеется.
ЧТО БУДЕТ НА ПРАКТИКУМЕ, ЧЕГО ОЖИДАТЬ!
Задача - поделится с тобой всем опытом в работе над дофаминовой системой, который я приобрел. Особенно ценный уникальный и неповторимый опыт я получил за последние полгода, объединив физиологические методы работы с гормональный фоном с такой наукой как "эмоциональный интеллект".
И ВСЁ ЖЕ, ХОТЯ БЫ КРАТКОЕ СОДЕРЖАНИЕ?
Полное погружение в тему дофаминергической системы. Её устройство, принцип работы, взаимосвязи между дофамином и другими гормонами. Понимание сути вещей, как следствие - полное понимание, как управлять фундаментальной системой человеческого организма.
Все самые эффективные инструменты, объединение которых вместе позволяет привести дофаминергическую систему к состоянию гения.
Мягкие и жесткие способы восстановления дофаминергической системы.
Отработка возможных проблем в ходе практики (срывы, падения состояний и т.д.)
Как суметь удержать этот сумасшедший ресурс, наращивать объем личности, способность жить в этом состоянии.
Какие аспекты в целеполагании, образе мышления следует учесть, чтобы усилить результативность практик?
Эмоциональный интеллект и дофамин.
Продолжительность: 05:20:08
Качество видео: CamRip
Видео: AVC/H.264, 1280x720, ~687 kbps
Аудио: AAC, 2 ch, 126 Kbps

MediaInfo:

Video
ID : 1
Format : AVC
Format/Info : Advanced Video Codec
Format profile : Main@L3.1
Format settings, CABAC : Yes
Format settings, ReFrames : 3 frames
Codec ID : avc1
Codec ID/Info : Advanced Video Coding
Duration : 3 h 39 min
Bit rate : 687 kb/s
Width : 1 280 pixels
Height : 720 pixels
Display aspect ratio : 16:9
Frame rate mode : Variable
Frame rate : 26.161 FPS
Minimum frame rate : 18.746 FPS
Maximum frame rate : 149.254 FPS
Color space : YUV
Chroma subsampling : 4:2:0
Bit depth : 8 bits
Scan type : Progressive
Bits/(Pixel*Frame) : 0.029
Stream size : 1.06 GiB (84%)
Title : ISO Media file produced by Google Inc. Created on: 12/10/2017.
Encoded date : UTC 2017-12-10 18:41:18
Tagged date : UTC 2017-12-10 18:41:18
Color range : Limited
Color primaries : BT.709
Transfer characteristics : BT.709
Matrix coefficients : BT.709
Audio
ID : 2
Format : AAC
Format/Info : Advanced Audio Codec
Format profile : LC
Codec ID : 40
Duration : 3 h 39 min
Source duration : 3 h 39 min
Bit rate mode : Variable
Bit rate : 126 kb/s
Channel(s) : 2 channels
Channel positions : Front: L R
Sampling rate : 44.1 kHz
Frame rate : 43.066 FPS (1024 spf)
Compression mode : Lossy
Stream size : 198 MiB (15%)
Source stream size : 198 MiB (15%)
Title : ISO Media file produced by Google Inc. Created on: 12/10/2017.
Encoded date : UTC 2017-12-10 18:41:18
Tagged date : UTC 2017-12-10 18:41:18
Скриншоты:
Скачать .torrent

Чтобы скачать торрент-файл

Михаил Рысак - Дофаминовый Рестарт. Будь голодным! (2017)

Вам нужно Авторизоваться на сайте под своим логином. Если у Вы ещё не зарегистрированы, тогда Вам нужно пройти Регистрацию


Показать сообщения:    
Ответить на тему

Скачать Михаил Рысак - Дофаминовый Рестарт. Будь голодным! (2017) торрент бесплатно. Отзывы, слив складчины.

Текущее время: Сегодня 18:39

Часовой пояс: GMT + 4



Вы не можете начинать темы
Вы не можете отвечать на сообщения
Вы не можете редактировать свои сообщения
Вы не можете удалять свои сообщения
Вы не можете голосовать в опросах
Вы не можете прикреплять файлы к сообщениям
Вы не можете скачивать файлы