Дмитрий Медведев - Основы 3D моделирования для ювелиров (2019) торрент

Ответить на тему
 
Автор Сообщение

Prescious ®

Дмитрий Медведев | Основы 3D моделирования для ювелиров (2019) PCRec - Автор: Дмитрий Медведев
Производство: j-design.pro
Жанр: Создание видео
Описание:
Для тех, кто хочет быстро освоить технику моделирования ювелирных украшений на компьютере с нуля.
В рамках нашего курса 3D моделирования ювелирных изделий Вы научитесь создавать 3D модели, делать рендер (визуализацию) ювелирных изделий в Rhinoceros, и сможете самостоятельно подготовить файлы для печати на 3D принтерах Solidscape, Envisiontec, ProJet, Digital Wax или фрезерах Roland, CNC Mira, Стриж, даже если Вы никогда раньше даже не открывали ни одну 3D программу.
Продолжительность: 114:45:18
Качество видео: PCRec
Видео: AVC/H.264, 1920x1080, ~392kbps
Аудио: AAC, 1 ch, 53kbps

MediaInfo:

General
Complete name : K:\Основы 3D моделирования для ювелиров\R1B1911\01.mp4
Format : MPEG-4
Format profile : Base Media / Version 2
Codec ID : mp42 (isom/mp42)
File size : 494 MiB
Duration : 2 h 33 min
Overall bit rate mode : Variable
Overall bit rate : 448 kb/s
Encoded date : UTC 2019-11-18 20:59:07
Tagged date : UTC 2019-11-18 20:59:07
Video
ID : 2
Format : AVC
Format/Info : Advanced Video Codec
Format profile : High@L5
Format settings : CABAC / 11 Ref Frames
Format settings, CABAC : Yes
Format settings, Reference fra : 11 frames
Muxing mode : Container profile=High@3.1
Codec ID : avc1
Codec ID/Info : Advanced Video Coding
Duration : 2 h 33 min
Bit rate : 393 kb/s
Width : 1 920 pixels
Height : 1 080 pixels
Display aspect ratio : 16:9
Frame rate mode : Constant
Frame rate : 25.000 FPS
Color space : YUV
Chroma subsampling : 4:2:0
Bit depth : 8 bits
Scan type : Progressive
Bits/(Pixel*Frame) : 0.008
Stream size : 432 MiB (88%)
Title : H.264/AVC video
Encoded date : UTC 2019-11-18 20:59:07
Tagged date : UTC 2019-11-18 20:59:07
Codec configuration box : avcC
Audio
ID : 1
Format : AAC LC
Format/Info : Advanced Audio Codec Low Complexity
Codec ID : mp4a-40-2
Duration : 2 h 33 min
Bit rate mode : Variable
Bit rate : 53.4 kb/s
Maximum bit rate : 132 kb/s
Channel(s) : 1 channel
Channel layout : C
Sampling rate : 32.0 kHz
Frame rate : 31.250 FPS (1024 SPF)
Compression mode : Lossy
Stream size : 58.8 MiB (12%)
Title : AAC audio
Encoded date : UTC 2019-11-18 20:59:07
Tagged date : UTC 2019-11-18 20:59:07
Menus : 3
Menu
ID : 3
Codec ID : text
Duration : 2 h 33 min
Title : Text
Encoded date : UTC 2019-11-18 20:59:07
Tagged date : UTC 2019-11-18 20:59:07
Menu For : 1
00:00:00.000 : Recording Started
00:00:02.880 : Sharing Started
00:55:27.360 : Sharing Stopped
00:55:39.200 : Sharing Started
00:58:45.640 : Sharing Stopped
00:59:02.000 : Sharing Started
01:50:08.920 : Sharing Stopped
01:50:57.480 : Sharing Started
01:58:11.600 : Sharing Stopped
01:58:37.160 : Sharing Started
02:03:57.880 : Sharing Stopped
02:04:08.120 : Sharing Started
02:07:55.280 : Sharing Stopped
02:08:22.080 : Sharing Started
02:08:41.960 : Sharing Stopped
02:09:41.640 : Sharing Started
02:25:50.440 : Sharing Stopped
02:26:13.600 : Sharing Started
02:33:53.160 : Sharing Stopped

Дополнительная информация:

Программное обеспечение: Rhinoceros, Magics, Keyshot
Файлы примеров: Есть

Кто ведет курс?

Дмитрий Медведев
Руководитель и основатель школы j-Design.pro.
Профессиональный 3D модельер, визуализатор.
Разработчик программ обучения по 3D моделированию для начинающих и опытных ювелиров.

Что будет на курсе 3D моделирования для ювелиров:

Обучение 3D моделированию ювелирных изделий начинается с программы Rhinoceros. Эта программа уже стала основным инструментом для работы ювелиров и 3D модельеров. Для нее написано огромное количество плагинов и дополнительных модулей, и сейчас в Rhino создается почти 90% всех современных ювелирных изделий! На курсе мы подробно рассмотрим необходимый инструментарий для работы и технику создания основных типов ювелирных 3D моделей
Чтобы 3D модель можно было отправить в печать и далее в производство, ее нужно подготовить специальным образом. И для этого мы будем использовать программу Magics, которая также входит в стандартный набор инструментов 3D ювелира. На курсе мы разберем работу этой программы и исправим возможные ошибки в файле.
А в конце сделаем красивый рендер (визуализацию) ваших моделей, чтобы можно было похвастаться друзьям и коллегам.

Пройдя курс «Основы 3D моделирования для ювелиров», вы научитесь:

Эффективно применять программы Rhinoceros, Magics и Keyshot для создания 3D моделей, и визуализации ювелирных изделий.
Создавать плоские 3D модели под эмаль.
Моделировать обручальные кольца и печатки
Размещать текст на кольцах
Переносить плоские орнаменты на выпуклую поверхность
Моделировать закрепку камней паве и фаден
Создавать крапановые касты для любой формы и огранки камней
Подготавливать файлы к 3D печати
Делать красивую картинку изделия для заказчика и еще многое другое…

5 причин пройти курс «Основы 3D моделирования для ювелиров»

Скорость. Вы изучаете только то, что необходимо для работы в первую очередь.
Техника. Вы осваиваете базовые техники, на которых также основано и более сложное моделирование.
Полный цикл. Вы проходите весь путь создания 3D модели с нуля и до создания 3D файла готового к печати на принтере, с учетом всех технологических параметров для ювелирного производства.
Технология. Вы сразу учитесь моделировать с учетом всех минимальных размеров и толщин.
Поддержка. Вы выполняете домашнее задание и получаете обратную связь на каждом занятии.
Скриншоты:
Скачать .torrent

Чтобы скачать торрент-файл

Дмитрий Медведев - Основы 3D моделирования для ювелиров (2019)

Вам нужно Авторизоваться на сайте под своим логином. Если у Вы ещё не зарегистрированы, тогда Вам нужно пройти Регистрацию


Показать сообщения:    
Ответить на тему

Скачать Дмитрий Медведев - Основы 3D моделирования для ювелиров (2019) торрент бесплатно. Отзывы, слив складчины.

Текущее время: Сегодня 13:54

Часовой пояс: GMT + 4



Вы не можете начинать темы
Вы не можете отвечать на сообщения
Вы не можете редактировать свои сообщения
Вы не можете удалять свои сообщения
Вы не можете голосовать в опросах
Вы не можете прикреплять файлы к сообщениям
Вы не можете скачивать файлы