Константин Шереметьев - Взрывной драйв. Как найти в себе источники энергии (2017) торрент

Ответить на тему
 
Автор Сообщение

Prescious ®

Константин Шереметьев | Взрывной драйв. Как найти в себе источники энергии (2017) PCRec - Автор: Константин Шереметьев
Жанр: Видеокурсы
Описание:
Что делать, когда сил и энергии ни на что не хватает?
Курс «Взрывной драйв. Как открыть в себе источники энергии» будет однозначно полезен всем, кто действительно хочет:
-Идти по жизни бодро и энергично
-Иметь силы для любых свершений
-Быть устойчивым к любому негативному воздействию
-Влиять на людей одним своим появлением
Знаете ли вы:
-Человек, которыи? на хорошеи? энергетике, начинает влиять на остальных самим фактом своего присутствия.
-Если он начинает какую-то речь, то его все начинают слушать. Если он делает предложение или даёт идею, то они принимаются, если где-то что-то ему не понравилось, то и другие тоже начинают соглашаться с ним. То есть сам процесс энергетики очень сильно влияет на результаты любой коммуникации.
-Самое интересное, что то, чего вы можете добиться в жизни, то, как вы можете повлиять на других – это полностью определяется запасом энергии.
В этом видеокурсе мы будем подробно говорить о том, как энергию набирать, как её использовать, и в результате каких ошибок эта энергия сливается.

Продолжение описания:

Из видеокурса «ВЗРЫВНОЙ ДРАЙВ» вы узнаете:
-Как вынырнуть из пучины полного упадка сил
-Есть ли связь между дисциплиной и хорошей энергетикой
-Что делать, чтобы чёрная полоса в жизни, наконец, закончилась
-Чем опасна повседневная рутина
-Почему от занятий фитнесом часто становится только хуже
-Откуда вообще берётся энергия
-Как правильно управлять (распределять) энергию
-Какие мифы про энергетику портят вам жизнь
-Как выйти из прокрастинации и начать действовать
-Почему депрессия - это нулевая энергетика
-Можно ли получить энергию извне
-Почему счастье невозможно без энергии
Содержание видеокурса «ВЗРЫВНОЙ ДРАЙВ»:
1. Зачем управлять своей энергетикой
2. Что такое энергетика
3. Положительная и отрицательная энергетика
4. Секреты набора энергии
5. Энергетика и влияние на людей
6. Как управлять энергетикой
7. Слив энергии
8. Энергетика и успех
9. Устойчивость к негативу
10. Своя игра
11. Неожиданные события
12. Энергетика и тело
13. Выступление перед аудиторией
14. Управление людьми
15. Трудная задача
16. Энергетика и путешествия
17. Мужчина и женщина
18. Жизнь на драйве
Продолжительность: 03:18:03
Качество видео: PCRec
Видео: AVC/H.264, 1280x720, ~768 kbps
Аудио: AAC, 2 ch, 226 Kbps

MediaInfo:

General
Complete name : D:\Обучалки\Психология\Взрывной драйв. Как найти в себе источники энергии (2017)\Sheremetev-Vzryvnoy_drive-01-Zachem_upravlyat_energetikoy.mp4
Format : MPEG-4
Format profile : Base Media
Codec ID : isom (isom/avc1)
File size : 54.8 MiB
Duration : 8 min
Overall bit rate mode : Variable
Overall bit rate : 893 kb/s
Encoded date : UTC 2017-03-14 11:22:34
Tagged date : UTC 2017-03-14 11:22:34
Writing application : FormatFactory
Video
ID : 1
Format : AVC
Format/Info : Advanced Video Codec
Format profile : High@L2.1
Format settings, CABAC : No
Format settings, ReFrames : 1 frame
Codec ID : avc1
Codec ID/Info : Advanced Video Coding
Duration : 8 min
Bit rate : 768 kb/s
Maximum bit rate : 9 699 kb/s
Width : 1 280 pixels
Height : 720 pixels
Display aspect ratio : 16:9
Frame rate mode : Constant
Frame rate : 24.000 FPS
Color space : YUV
Chroma subsampling : 4:2:0
Bit depth : 8 bits
Scan type : Progressive
Bits/(Pixel*Frame) : 0.035
Stream size : 47.0 MiB (86%)
Writing library : x264 core 148 r2665 a01e339
Encoding settings : cabac=0 / ref=1 / deblock=1:0:0 / analyse=0x3:0x113 / me=hex / subme=7 / psy=1 / psy_rd=1.00:0.00 / mixed_ref=0 / me_range=16 / chroma_me=1 / trellis=1 / 8x8dct=1 / cqm=0 / deadzone=21,11 / fast_pskip=1 / chroma_qp_offset=-2 / threads=6 / lookahead_threads=1 / sliced_threads=0 / nr=0 / decimate=1 / interlaced=0 / bluray_compat=0 / constrained_intra=0 / bframes=0 / weightp=2 / keyint=250 / keyint_min=24 / scenecut=40 / intra_refresh=0 / rc_lookahead=40 / rc=2pass / mbtree=1 / bitrate=768 / ratetol=1.0 / qcomp=0.60 / qpmin=0 / qpmax=69 / qpstep=4 / cplxblur=20.0 / qblur=0.5 / ip_ratio=1.40 / aq=1:1.00
Encoded date : UTC 2017-03-14 11:22:34
Tagged date : UTC 2017-03-14 11:22:38
Audio
ID : 2
Format : AAC
Format/Info : Advanced Audio Codec
Format profile : LC
Codec ID : 40
Duration : 8 min
Bit rate mode : Variable
Bit rate : 125 kb/s
Maximum bit rate : 226 kb/s
Channel(s) : 2 channels
Channel positions : Front: L R
Sampling rate : 44.1 kHz
Frame rate : 43.066 FPS (1024 spf)
Compression mode : Lossy
Stream size : 7.68 MiB (14%)
Encoded date : UTC 2017-03-14 11:22:37
Tagged date : UTC 2017-03-14 11:22:38
Скриншоты:
Скачать .torrent

Чтобы скачать торрент-файл

Константин Шереметьев - Взрывной драйв. Как найти в себе источники энергии (2017)

Вам нужно Авторизоваться на сайте под своим логином. Если у Вы ещё не зарегистрированы, тогда Вам нужно пройти Регистрацию


Показать сообщения:    
Ответить на тему

Скачать Константин Шереметьев - Взрывной драйв. Как найти в себе источники энергии (2017) торрент бесплатно. Отзывы, слив складчины.

Текущее время: Сегодня 18:26

Часовой пояс: GMT + 4



Вы не можете начинать темы
Вы не можете отвечать на сообщения
Вы не можете редактировать свои сообщения
Вы не можете удалять свои сообщения
Вы не можете голосовать в опросах
Вы не можете прикреплять файлы к сообщениям
Вы не можете скачивать файлы