Michael Pavlovich - Zbrush for Ideation Unit 07 Presentation (2018) торрент

Ответить на тему
 
Автор Сообщение

Prescious ®

Michael Pavlovich | Zbrush for Ideation Unit 07 Presentation (2018) PCRec [En, Ru] - Автор: Michael Pavlovich
Производство: Gumroad
Жанр: Создание видео
Описание:
Это седьмой курс большой серии Zbrush для Воображения.
Он будет посвящен подготовке презентации.
Продолжительность: 02:20:00
Качество видео: PCRec
Язык озвучки: Английский, Русский
Видео: AVC/H.264, 1920x1080, ~369 kbps
Аудио: AAC, 2 ch, 125 kbps
Аудио 2: MP3, 2 ch, 192 kbps (отдельным файлом)

MediaInfo:

General
Complete name : K:\[Gumroad] Zbrush for Ideation Unit 07 Presentation [ENG-RUS]\001_ZBrush_Layer_Basics.mp4
Format : MPEG-4
Format profile : Base Media / Version 2
Codec ID : mp42 (isom/mp42)
File size : 21.4 MiB
Duration : 6 min 1 s
Overall bit rate mode : Variable
Overall bit rate : 498 kb/s
Encoded date : UTC 2018-11-12 16:42:20
Tagged date : UTC 2018-11-12 16:42:20
Video
ID : 1
Format : AVC
Format/Info : Advanced Video Codec
Format profile : High@L4
Format settings : CABAC / 4 Ref Frames
Format settings, CABAC : Yes
Format settings, Reference fra : 4 frames
Codec ID : avc1
Codec ID/Info : Advanced Video Coding
Duration : 6 min 1 s
Bit rate : 369 kb/s
Width : 1 920 pixels
Height : 1 080 pixels
Display aspect ratio : 16:9
Frame rate mode : Constant
Frame rate : 30.000 FPS
Standard : NTSC
Color space : YUV
Chroma subsampling : 4:2:0
Bit depth : 8 bits
Scan type : Progressive
Bits/(Pixel*Frame) : 0.006
Stream size : 15.9 MiB (74%)
Language : English
Encoded date : UTC 2018-11-12 16:42:20
Tagged date : UTC 2018-11-12 16:42:20
Color range : Limited
Color primaries : BT.709
Transfer characteristics : BT.709
Matrix coefficients : BT.601
Codec configuration box : avcC
Audio
ID : 2
Format : AAC LC
Format/Info : Advanced Audio Codec Low Complexity
Codec ID : mp4a-40-2
Duration : 6 min 1 s
Bit rate mode : Variable
Bit rate : 126 kb/s
Maximum bit rate : 168 kb/s
Channel(s) : 2 channels
Channel layout : L R
Sampling rate : 44.1 kHz
Frame rate : 43.066 FPS (1024 SPF)
Compression mode : Lossy
Stream size : 5.41 MiB (25%)
Language : English
Encoded date : UTC 2018-11-12 16:42:20
Tagged date : UTC 2018-11-12 16:42:20

Дополнительная информация:

Программное обеспечение: ZBrush 2018.1
Файлы примеров: Нет

Содержание курса:

001 ZBrush Layer Basics
002 ZBrush Mask and Transpose Posing
003 ZBrush Transpose Master
004 ZBrush ZSphere Posing
005 ZBrush Transpose Master ZSphere Rig
006 Head Refine Timelapse
007 Pros for Native ZBrush Rendering
008 ZBrush Cameras and View
009 ZBrush Shadow and AO Settings
010 ZBrush Lights and Materials
011 ZBrush Render Layers and Image Size
012 ZBrush Materials and Polypaint
013 ZBrush Background Image
014 ZBrush LightCap and Macro
015 ZBrush Custom Floor Plane
016 ZBrush Importing HDR Images
017 ZBrush Wax Preview
018 ZBrush BPR Filters
019 ZBrush Turntable Movie
020 ZBrush Timeline Movie
021 SculptrisProAndDecimation
022 3D Print Preparation
023 3D Print Supports and Print
024 ZBrush Map Baking
025 ZBrush Maya Blendshapes Plugin
026 ZBrush Subtool Master
027 Importing and Exporting
028 GoZ
Скриншоты:
Скачать .torrent

Чтобы скачать торрент-файл

Michael Pavlovich - Zbrush for Ideation Unit 07 Presentation (2018)

Вам нужно Авторизоваться на сайте под своим логином. Если у Вы ещё не зарегистрированы, тогда Вам нужно пройти Регистрацию


Показать сообщения:    
Ответить на тему

Скачать Michael Pavlovich - Zbrush for Ideation Unit 07 Presentation (2018) торрент бесплатно. Отзывы, слив складчины.

Текущее время: Сегодня 04:33

Часовой пояс: GMT + 4



Вы не можете начинать темы
Вы не можете отвечать на сообщения
Вы не можете редактировать свои сообщения
Вы не можете удалять свои сообщения
Вы не можете голосовать в опросах
Вы не можете прикреплять файлы к сообщениям
Вы не можете скачивать файлы