Новые раздачи

02-Дек
02-Дек
02-Дек
01-Дек
01-Дек
01-Дек
01-Дек
01-Дек
01-Дек
01-Дек
01-Дек
01-Дек
01-Дек
30-Ноя
30-Ноя

Важное

Michael Pavlovich - Zbrush for Ideation. Unit 06. Creation Techniques. Surface (2018) торрент

Ответить на тему
 
Автор Сообщение

Prescious ®

Michael Pavlovich | Zbrush for Ideation. Unit 06. Creation Techniques. Surface (2018) PCRec [En, Ru] - Автор: Michael Pavlovich
Производство: Gumroad
Жанр: Создание видео
Описание:
Это шестой курс большой серии Zbrush для Воображения.
Он будет посвящен работе с поверхностью.
Продолжительность: 03:35:00
Качество видео: PCRec
Язык озвучки: Английский, Русский
Видео: AVC/H.264, 1920x1080, ~1471 kbps
Аудио: AAC, 2 ch, 125 kbps
Аудио 2: MP3, 2 ch, 192 kbps (отдельным файлом)

MediaInfo:

General
Complete name : K:\[Gumroad] Zbrush for Ideation. Unit 06. Creation Techniques. Surface [ENG-RUS]\001_ZBrush_Mouthbag_Creation.mp4
Format : MPEG-4
Format profile : Base Media / Version 2
Codec ID : mp42 (isom/mp42)
File size : 61.7 MiB
Duration : 5 min 23 s
Overall bit rate mode : Variable
Overall bit rate : 1 600 kb/s
Encoded date : UTC 2018-11-12 14:34:19
Tagged date : UTC 2018-11-12 14:34:19
Video
ID : 1
Format : AVC
Format/Info : Advanced Video Codec
Format profile : High@L4
Format settings : CABAC / 4 Ref Frames
Format settings, CABAC : Yes
Format settings, Reference fra : 4 frames
Codec ID : avc1
Codec ID/Info : Advanced Video Coding
Duration : 5 min 23 s
Bit rate : 1 472 kb/s
Width : 1 920 pixels
Height : 1 080 pixels
Display aspect ratio : 16:9
Frame rate mode : Constant
Frame rate : 30.000 FPS
Standard : NTSC
Color space : YUV
Chroma subsampling : 4:2:0
Bit depth : 8 bits
Scan type : Progressive
Bits/(Pixel*Frame) : 0.024
Stream size : 56.8 MiB (92%)
Language : English
Encoded date : UTC 2018-11-12 14:34:19
Tagged date : UTC 2018-11-12 14:34:19
Color range : Limited
Color primaries : BT.709
Transfer characteristics : BT.709
Matrix coefficients : BT.601
Codec configuration box : avcC
Audio
ID : 2
Format : AAC LC
Format/Info : Advanced Audio Codec Low Complexity
Codec ID : mp4a-40-2
Duration : 5 min 23 s
Bit rate mode : Variable
Bit rate : 126 kb/s
Maximum bit rate : 167 kb/s
Channel(s) : 2 channels
Channel layout : L R
Sampling rate : 44.1 kHz
Frame rate : 43.066 FPS (1024 SPF)
Compression mode : Lossy
Stream size : 4.85 MiB (8%)
Language : English
Encoded date : UTC 2018-11-12 14:34:19
Tagged date : UTC 2018-11-12 14:34:19

Дополнительная информация:

Программное обеспечение: ZBrush 2018.1
Файлы примеров: Нет

Содержание курса:

001 ZBrush Mouthbag Creation
002 ZBrush ZRemesh Facial Topology
003 ZBrush ZSphere Topology Cleanup
004 ZBrush Freeze Subdivision Levels
005 ZBrush ZProject Brush and Smart Resym
006 ZBrush Reconstruct Subdivisions
007 ZBrush Primitive Topology
008 ZBrush UV Master
009 ZBrush Misc Test Object
010 ZBrush UV Tile Options
011 ZBrush Surface Noise Basics
012 ZBrush Noise Maker
013 ZBrush Surface Noise UV
014 ZBrush Brush Surface Noise
015 ZBrush Document Tiling
016 ZBrush Hard Surface Document Tile
017 ZBrush Document Tiling Alternatives
018 ZBrush Applying Surface Noise
019 ZBrush Null Name Object
020 JSPlacement
021 ZBrush JSPlacement Surface Noise
022 ZBrush Nanomesh Basics
023 ZBrush Micromesh Basics
024 Fishnets MicroMesh
025 ZBrush Fishnets Nanomesh
026 ZBrush Wrap Mode
027 ZBrush NanoTile Wrap Plane
028 ZBrush Nanotile Birdseed
029 ZBrush Nanotile Plugin
030 ZBrush Array and Nano Tiling
031 ZBrush Nanomesh Plane IMM
032 ZBrush Nanomesh Ship Panels
033 ZBrush Array Mesh Basics
034 ZBrush Fibermesh Basics
035 ZBrush Fibermesh Cards
036 ZBrush Fibermesh Grooming
037 ZBrush Morph Guided Fibermesh
038 ZBrush Micromesh Fibermesh
039 ZBrush Polypaint Fibermesh
040 ZBrush Fibermesh Lightbox
041 ZBrush ZModeler Polygrouping Options
042_ZBrush More Masking Options
Скриншоты:
Скачать .torrent

Чтобы скачать торрент-файл

Michael Pavlovich - Zbrush for Ideation. Unit 06. Creation Techniques. Surface (2018)

Вам нужно Авторизоваться на сайте под своим логином. Если у Вы ещё не зарегистрированы, тогда Вам нужно пройти Регистрацию


Показать сообщения:    
Ответить на тему

Скачать Michael Pavlovich - Zbrush for Ideation. Unit 06. Creation Techniques. Surface (2018) торрент бесплатно. Отзывы, слив складчины.

Текущее время: Сегодня 07:11

Часовой пояс: GMT + 4



Вы не можете начинать темы
Вы не можете отвечать на сообщения
Вы не можете редактировать свои сообщения
Вы не можете удалять свои сообщения
Вы не можете голосовать в опросах
Вы не можете прикреплять файлы к сообщениям
Вы не можете скачивать файлы