Michael Pavlovich - Zbrush for Ideation. Unit 05. Creation Techniques. Details (2018) торрент

Ответить на тему
 
Автор Сообщение

Prescious ®

Michael Pavlovich | Zbrush for Ideation. Unit 05. Creation Techniques. Details (2018) PCRec [En, Ru] - Автор: Michael Pavlovich
Производство: Gumroad
Жанр: Создание видео
Описание:
Это пятый курс большой серии Zbrush для Воображения.
Он будет посвящен работе с детализацией.
Продолжительность: 03:09:00
Качество видео: PCRec
Язык озвучки: Английский, Русский
Видео: AVC/H.264, 1920x1080, ~431kbps
Аудио: AAC, 2 ch, 125kbps
Аудио 2: MP3, 2 ch, 192kbps (отдельным файлом)

MediaInfo:

General
Complete name : K:\[Gumroad] Zbrush for Ideation. Unit 05. Creation Techniques. Details [ENG-RUS]\001_ZBrush_Live_Boolean_Basics.mp4
Format : MPEG-4
Format profile : Base Media / Version 2
Codec ID : mp42 (isom/mp42)
File size : 22.3 MiB
Duration : 5 min 34 s
Overall bit rate mode : Variable
Overall bit rate : 560 kb/s
Encoded date : UTC 2018-11-12 13:25:02
Tagged date : UTC 2018-11-12 13:25:02
Video
ID : 1
Format : AVC
Format/Info : Advanced Video Codec
Format profile : High@L4
Format settings : CABAC / 4 Ref Frames
Format settings, CABAC : Yes
Format settings, Reference fra : 4 frames
Codec ID : avc1
Codec ID/Info : Advanced Video Coding
Duration : 5 min 34 s
Bit rate : 431 kb/s
Width : 1 920 pixels
Height : 1 080 pixels
Display aspect ratio : 16:9
Frame rate mode : Constant
Frame rate : 30.000 FPS
Standard : NTSC
Color space : YUV
Chroma subsampling : 4:2:0
Bit depth : 8 bits
Scan type : Progressive
Bits/(Pixel*Frame) : 0.007
Stream size : 17.2 MiB (77%)
Language : English
Encoded date : UTC 2018-11-12 13:25:03
Tagged date : UTC 2018-11-12 13:25:03
Color range : Limited
Color primaries : BT.709
Transfer characteristics : BT.709
Matrix coefficients : BT.601
Codec configuration box : avcC
Audio
ID : 2
Format : AAC LC
Format/Info : Advanced Audio Codec Low Complexity
Codec ID : mp4a-40-2
Duration : 5 min 34 s
Bit rate mode : Variable
Bit rate : 126 kb/s
Maximum bit rate : 170 kb/s
Channel(s) : 2 channels
Channel layout : L R
Sampling rate : 44.1 kHz
Frame rate : 43.066 FPS (1024 SPF)
Compression mode : Lossy
Stream size : 5.02 MiB (22%)
Language : English
Encoded date : UTC 2018-11-12 13:25:03
Tagged date : UTC 2018-11-12 13:25:03

Дополнительная информация:

Программное обеспечение: ZBrush 2018.1
Файлы примеров: Нет

Содержание курса:

001 ZBrush Live Boolean Basics
002 ZBrush Live Boolean IMM
003 ZBrush Live Boolean Union Mesh
004 ZBrush Live Boolean Dynamic Subd
005 ZBrush Live Boolean Start Groups
006 ZBrush Live Boolean Panel Slice
007 ZBrush Live Boolean Array Mesh
008 ZBrush Live Boolean Surface Noise
009 ZBrush Live Boolean Curve Brush
010 ZBrush Live Boolean Dynamesh
011 ZBrush Live Boolean Master
012 ZBrush IMM Reverse Insert
013 ZBrush Live Boolean Coplanar
014 ZBrush Modifying Boolean Transitions
015 ZBrush Multi Alpha Brush
016 ZBrush Brush Organization Options
017 ZBrush Chisel Continuous Stroke
018 ZBrush Shift Snap Straight Lines
019 ZBrush Vector Displacement Mesh
020 ZBrush Brush Magnify
021 ZBrush Multi Alpha Brush From Images
022 ZBrush Projection Master Overview
023 ZBrush Hard Surface VDM Projection Master
024 ZBrush Create Multi Alpha Brush
025 ZBrush Project Primitive VDM
026 ZBrush Custom Tri Curve Panel Brush
027 ZBrush TriCurve Live Boolean Panels
028 ZBrush Live Boolean Test Cube
029 ZBrush Recessed Live Boolean Deconstruction
030 ZBrush Custom Recessed Live Boolean
031 ZBrush Compound Live Boolean IMM
032 ZBrush Relief Sculpture Techniques
033 ZBrush Mesh Fusion
034 ZBrush Polygroup From Polypaint
035 ZBrush PolygroupIt Surface
036 ZBrush Polypainting For PolygroupIt
037 ZBrush PolygroupIt With Polypaint
038 ZBrush Hard Surface Geo From PolygroupIt
039 ZBrush Material Breakup Previs
Скриншоты:
Скачать .torrent

Чтобы скачать торрент-файл

Michael Pavlovich - Zbrush for Ideation. Unit 05. Creation Techniques. Details (2018)

Вам нужно Авторизоваться на сайте под своим логином. Если у Вы ещё не зарегистрированы, тогда Вам нужно пройти Регистрацию


Показать сообщения:    
Ответить на тему

Скачать Michael Pavlovich - Zbrush for Ideation. Unit 05. Creation Techniques. Details (2018) торрент бесплатно. Отзывы, слив складчины.

Текущее время: Сегодня 18:46

Часовой пояс: GMT + 4



Вы не можете начинать темы
Вы не можете отвечать на сообщения
Вы не можете редактировать свои сообщения
Вы не можете удалять свои сообщения
Вы не можете голосовать в опросах
Вы не можете прикреплять файлы к сообщениям
Вы не можете скачивать файлы