Новые раздачи

02-Дек
02-Дек
02-Дек
01-Дек
01-Дек
01-Дек
01-Дек
01-Дек
01-Дек
01-Дек
01-Дек
01-Дек
01-Дек
30-Ноя
30-Ноя

Важное

Michael Pavlovich - Zbrush for Ideation. Unit 04. Creation Technics. Forms (2018) торрент

Ответить на тему
 
Автор Сообщение

Prescious ®

Michael Pavlovich | Zbrush for Ideation. Unit 04. Creation Technics. Forms (2018) PCRec [En, Ru] - Автор: Michael Pavlovich
Производство: Gumroad
Жанр: Создание видео
Описание:
Это четвёртый курс большой серии Zbrush для Воображения.
Он будет посвящен работе с формами
Продолжительность: 03:35:00
Качество видео: PCRec
Язык озвучки: Английский, Русский
Видео: AVC/H.264, 1920x1080, ~683 kbps
Аудио: AAC, 2 ch, 125 kbps
Аудио 2: MP3, 2 ch, 192 kbps (отдельным файлом)

MediaInfo:

General
Complete name : K:\[Gumroad] Zbrush for Ideation. Unit 04. Creation Technics. Forms [ENG-RUS]\001_ZBrush_3D_Text.mp4
Format : MPEG-4
Format profile : Base Media / Version 2
Codec ID : mp42 (isom/mp42)
File size : 18.6 MiB
Duration : 3 min 11 s
Overall bit rate mode : Variable
Overall bit rate : 812 kb/s
Encoded date : UTC 2018-11-12 11:13:37
Tagged date : UTC 2018-11-12 11:13:37
Video
ID : 1
Format : AVC
Format/Info : Advanced Video Codec
Format profile : High@L4
Format settings : CABAC / 4 Ref Frames
Format settings, CABAC : Yes
Format settings, Reference fra : 4 frames
Codec ID : avc1
Codec ID/Info : Advanced Video Coding
Duration : 3 min 11 s
Bit rate : 683 kb/s
Width : 1 920 pixels
Height : 1 080 pixels
Display aspect ratio : 16:9
Frame rate mode : Constant
Frame rate : 30.000 FPS
Standard : NTSC
Color space : YUV
Chroma subsampling : 4:2:0
Bit depth : 8 bits
Scan type : Progressive
Bits/(Pixel*Frame) : 0.011
Stream size : 15.6 MiB (84%)
Language : English
Encoded date : UTC 2018-11-12 11:13:37
Tagged date : UTC 2018-11-12 11:13:37
Color range : Limited
Color primaries : BT.709
Transfer characteristics : BT.709
Matrix coefficients : BT.601
Codec configuration box : avcC
Audio
ID : 2
Format : AAC LC
Format/Info : Advanced Audio Codec Low Complexity
Codec ID : mp4a-40-2
Duration : 3 min 11 s
Bit rate mode : Variable
Bit rate : 126 kb/s
Maximum bit rate : 166 kb/s
Channel(s) : 2 channels
Channel layout : L R
Sampling rate : 44.1 kHz
Frame rate : 43.066 FPS (1024 SPF)
Compression mode : Lossy
Stream size : 2.87 MiB (15%)
Language : English
Encoded date : UTC 2018-11-12 11:13:37
Tagged date : UTC 2018-11-12 11:13:37

Дополнительная информация:

Программное обеспечение: ZBrush 2018.1
Файлы примеров: Нет

Содержание курса:

001 ZBrush 3D Text
002 ZBrush SVG Vector 3D
003 ZBrush Text Bend Arc Alpha
004 ZBrush Tool Menu Deformers
005 ZBrush Gizmo Deformer Base Functionality
006 ZBrush Gizmo Deformers
007 ZBrush Project Primitive Base Functionality
008 ZBrush Remesh By Dynamesh
009 ZBrush Remesh By Union
010 ZBrush Remesh By ZRemesher
011 ZBrush Remesh By Decimation
012 ZBrush Shadowbox
013 ZBrush ZSpheres
014 ZBrush ZSketch
015 ZBrush ZSphere Mannequin Posing
016 ZBrush New Snakehook Functionality
017 ZBrush Transpose Modeling
018 ZBrush ZRemesher Basics
019 ZBrush ZRemesh Hard Surface
020 ZBrush Extract
021 ZBrush Topology Brush
022 ZBrush Morph Diff
023 ZBrush Curve Creation Brushes
024 ZBrush Groups Loops
025 ZBrush Panel Loops
026 ZBrush Panel Loop Preset Plugin
027 ZBrush ZSphere Retopology Accessories
028 ZBrush ZSphere Retopology and Project
029 ZBrush ZSphere Retopology Bridge
030 ZBrush Local Symmetry
031 ZBrush Refine Topology Mesh
032 ZBrush Using Techniques Together
033 ZBrush Lightweighting Demo
034 ZBrush Remesh
Скриншоты:
Скачать .torrent

Чтобы скачать торрент-файл

Michael Pavlovich - Zbrush for Ideation. Unit 04. Creation Technics. Forms (2018)

Вам нужно Авторизоваться на сайте под своим логином. Если у Вы ещё не зарегистрированы, тогда Вам нужно пройти Регистрацию


Показать сообщения:    
Ответить на тему

Скачать Michael Pavlovich - Zbrush for Ideation. Unit 04. Creation Technics. Forms (2018) торрент бесплатно. Отзывы, слив складчины.

Текущее время: Сегодня 07:47

Часовой пояс: GMT + 4



Вы не можете начинать темы
Вы не можете отвечать на сообщения
Вы не можете редактировать свои сообщения
Вы не можете удалять свои сообщения
Вы не можете голосовать в опросах
Вы не можете прикреплять файлы к сообщениям
Вы не можете скачивать файлы