Michael Pavlovich - Zbrush for Ideation. Unit 03. Exploration (2018) торрент

Ответить на тему
 
Автор Сообщение

Prescious ®

Michael Pavlovich | Zbrush for Ideation. Unit 03. Exploration (2018) PCRec [En, Ru] - Автор: Michael Pavlovich
Производство: Gumroad
Жанр: Создание видео
Описание:
Это третий курс большой серии Zbrush для Воображения.
Он будет посвящен работе с 2D несмотря на то что большая часть этой серии курсов посвящена трехмерным техникам.
В Zbrush есть очень удобные инструменты работы в двухмерном режиме.
Правильный дизайн в 2D - необходимое условие успешного создания на его основе 3D модели.

Продолжение описания:

Использование 2D инструментов и техник позволяет более внимательно взглянуть на те аспекты работы которые не так видны в трёхмерном пространстве.
Двухмерное представление позволяет нам лучше понять - что именно создается в 3D.
Применяя двухмерные изображения можно более адекватно оценить и создать трёхмерную модель.
Продолжительность: 02:23:00
Качество видео: PCRec
Язык озвучки: Английский, Русский
Видео: AVC/H.264, 1920x1080, ~486 kbps
Аудио: AAC, 2 ch, 125 kbps
Аудио 2: MP3, 2 ch, 192 kbps (отдельным файлом)

MediaInfo:

General
Complete name : K:\[Gumroad] Zbrush for Ideation. Unit 03. Exploration [ENG-RUS]\001_ZBrush_Drawing.mp4
Format : MPEG-4
Format profile : Base Media / Version 2
Codec ID : mp42 (isom/mp42)
File size : 31.3 MiB
Duration : 7 min 7 s
Overall bit rate mode : Variable
Overall bit rate : 615 kb/s
Encoded date : UTC 2018-11-12 09:29:53
Tagged date : UTC 2018-11-12 09:29:53
Video
ID : 1
Format : AVC
Format/Info : Advanced Video Codec
Format profile : High@L4
Format settings : CABAC / 4 Ref Frames
Format settings, CABAC : Yes
Format settings, Reference fra : 4 frames
Codec ID : avc1
Codec ID/Info : Advanced Video Coding
Duration : 7 min 7 s
Bit rate : 486 kb/s
Width : 1 920 pixels
Height : 1 080 pixels
Display aspect ratio : 16:9
Frame rate mode : Constant
Frame rate : 30.000 FPS
Standard : NTSC
Color space : YUV
Chroma subsampling : 4:2:0
Bit depth : 8 bits
Scan type : Progressive
Bits/(Pixel*Frame) : 0.008
Stream size : 24.8 MiB (79%)
Language : English
Encoded date : UTC 2018-11-12 09:29:54
Tagged date : UTC 2018-11-12 09:29:54
Color range : Limited
Color primaries : BT.709
Transfer characteristics : BT.709
Matrix coefficients : BT.601
Codec configuration box : avcC
Audio
ID : 2
Format : AAC LC
Format/Info : Advanced Audio Codec Low Complexity
Codec ID : mp4a-40-2
Duration : 7 min 7 s
Bit rate mode : Variable
Bit rate : 126 kb/s
Maximum bit rate : 167 kb/s
Channel(s) : 2 channels
Channel layout : L R
Sampling rate : 44.1 kHz
Frame rate : 43.066 FPS (1024 SPF)
Compression mode : Lossy
Stream size : 6.41 MiB (20%)
Language : English
Encoded date : UTC 2018-11-12 09:29:54
Tagged date : UTC 2018-11-12 09:29:54

Дополнительная информация:

Программное обеспечение: ZBrush 2018.1
Файлы примеров: Нет

Содержание курса:

001 Рисование.
002 Использование Smart Mask с Transpose.
003 Перенос дизайнов.
004 Функционал QuickSketch.
005 Создание базового рендера.
006 Обзор простого рисования.
007 Основы Spotlight.
008 Быстрая доработка модели головы.
009 Создание текстуры кожи с помощью Spotlight.
010 Создание фантастических панелей с помощью Spotlight.
011 Spotlight Options
012 Обзор работы с референсами, использование прозрачности.
013 Референсы: Spotlight и ZAppLink.
014 Референсы: Spotlight и Timeline.
015 Референсы: Kuadro.
016 Референсы: сетка поверхности Floor Plane.
017 Референсы: создание снэпшотов.
018 Применение Capture для текущего документа Zbrush.
019 ZBrush для Photoshop.
020 Создание скетча для робота.
021 Китбашинг космического корабля.
022 Китбашинг робота.
023 Использование Plane Insert.
024 Скульптинг по концепту.
025 Разделение модели и ее оптимизация .
026 Функциональность концепта
027 Decimation Master
028Ресурсы для скульптинга по концепту
029 PaintStop
Скриншоты:
Скачать .torrent

Чтобы скачать торрент-файл

Michael Pavlovich - Zbrush for Ideation. Unit 03. Exploration (2018)

Вам нужно Авторизоваться на сайте под своим логином. Если у Вы ещё не зарегистрированы, тогда Вам нужно пройти Регистрацию


Показать сообщения:    
Ответить на тему

Скачать Michael Pavlovich - Zbrush for Ideation. Unit 03. Exploration (2018) торрент бесплатно. Отзывы, слив складчины.

Текущее время: Сегодня 14:41

Часовой пояс: GMT + 4



Вы не можете начинать темы
Вы не можете отвечать на сообщения
Вы не можете редактировать свои сообщения
Вы не можете удалять свои сообщения
Вы не можете голосовать в опросах
Вы не можете прикреплять файлы к сообщениям
Вы не можете скачивать файлы