Michael Pavlovich - Zbrush for Ideation Unit 02 Blockout (2018) торрент

Ответить на тему
 
Автор Сообщение

Prescious ®

Michael Pavlovich | Zbrush for Ideation Unit 02 Blockout (2018) PCRec [En, Ru] - Автор: Michael Pavlovich
Производство: Gumroad
Жанр: Создание видео
Описание:
Это второй курс большой серии Zbrush для Воображения.
Он будет посвящен работе с инсерт мешами и другими инструментами, научимся создавать базовые формы органических и твердотельных моделей.
Также вы научитесь работать с кистями в режиме создания контура кривой, научитесь создавать такие кастомные кисти, разберетесь с процессами и техниками работы такими кистями с твердотельными и органическими моделями.
Продолжительность: 03:43:00
Качество видео: PCRec
Язык озвучки: Английский, Русский
Видео: AVC/H.264, 1920x1080, ~483 kbps
Аудио: AAC, 2 ch, 125 kbps
Аудио 2: MP3, 2 ch, 192 kbps (отдельным файлом)

MediaInfo:

General
Complete name : K:\[Gumroad] Zbrush for Ideation Unit 02 Blockout [ENG-RUS]\001_ZBrush_Append_and_Insert.mp4
Format : MPEG-4
Format profile : Base Media / Version 2
Codec ID : mp42 (isom/mp42)
File size : 18.0 MiB
Duration : 4 min 7 s
Overall bit rate mode : Variable
Overall bit rate : 612 kb/s
Encoded date : UTC 2018-11-12 07:00:02
Tagged date : UTC 2018-11-12 07:00:02
Video
ID : 1
Format : AVC
Format/Info : Advanced Video Codec
Format profile : High@L4
Format settings : CABAC / 4 Ref Frames
Format settings, CABAC : Yes
Format settings, Reference fra : 4 frames
Codec ID : avc1
Codec ID/Info : Advanced Video Coding
Duration : 4 min 7 s
Bit rate : 484 kb/s
Width : 1 920 pixels
Height : 1 080 pixels
Display aspect ratio : 16:9
Frame rate mode : Constant
Frame rate : 30.000 FPS
Standard : NTSC
Color space : YUV
Chroma subsampling : 4:2:0
Bit depth : 8 bits
Scan type : Progressive
Bits/(Pixel*Frame) : 0.008
Stream size : 14.2 MiB (79%)
Language : English
Encoded date : UTC 2018-11-12 07:00:03
Tagged date : UTC 2018-11-12 07:00:03
Color range : Limited
Color primaries : BT.709
Transfer characteristics : BT.709
Matrix coefficients : BT.601
Codec configuration box : avcC
Audio
ID : 2
Format : AAC LC
Format/Info : Advanced Audio Codec Low Complexity
Codec ID : mp4a-40-2
Duration : 4 min 7 s
Bit rate mode : Variable
Bit rate : 126 kb/s
Maximum bit rate : 171 kb/s
Channel(s) : 2 channels
Channel layout : L R
Sampling rate : 44.1 kHz
Frame rate : 43.066 FPS (1024 SPF)
Compression mode : Lossy
Stream size : 3.70 MiB (21%)
Language : English
Encoded date : UTC 2018-11-12 07:00:03
Tagged date : UTC 2018-11-12 07:00:03

Дополнительная информация:

Программное обеспечение: ZBrush 2018.1
Файлы примеров: Нет

Содержание курса:

001 Функционал кнопок Append и Insert.
002 Основы создания Insert Mesh кистей.
003 Работа кистяи с использованием автомаскинга (функционал Auto Masking).
004 Разделение сабтулов.
005 Принципы динамики Insert Mesh, управление размером, значение Null и Dynamic Size.
006 Кастомизация IMM кистей.
007 IMM кисти, использование кризинга и полипэинта.
008 Функционал Projection Strength и кисть MatchMaker.
009 Режим Dynamic Solo.
010 Режимы Draw и Dynamic.
011 IMM кисти, направление действия.
012 IMM кисти, создание.
013 IMM кисти, ресурсы.
014 Dynamesh и взаимодействие с Boolean объектами.
015 Вариации с Mirror.
016 Основы работы с кистями в режиме Curve.
017 IMM TriPart кисти - твердотельные
018 IMM TriPart кисти - органика
019 Разрешение кистей в режиме Curve
020 Другие настройки и опции кистей в режиме Curve
021 Основы работы с ZSphere
022 Управление контурами кривой
023 Техники создания волос
024 Техники создания век (анат.)
025 Создание базовой формы робота
026 Создание базовой формы робота - вариации
027 Создание базовой формы человеческого тела
028 Создание базовой формы человеческого тела - вариации
029 Создание базовой формы человеческого тела - скульптинг
030 Создание базовой формы робота - скульптинг
031 Создаем шнурки
Скриншоты:
Скачать .torrent

Чтобы скачать торрент-файл

Michael Pavlovich - Zbrush for Ideation Unit 02 Blockout (2018)

Вам нужно Авторизоваться на сайте под своим логином. Если у Вы ещё не зарегистрированы, тогда Вам нужно пройти Регистрацию


Показать сообщения:    
Ответить на тему

Скачать Michael Pavlovich - Zbrush for Ideation Unit 02 Blockout (2018) торрент бесплатно. Отзывы, слив складчины.

Текущее время: Сегодня 18:58

Часовой пояс: GMT + 4



Вы не можете начинать темы
Вы не можете отвечать на сообщения
Вы не можете редактировать свои сообщения
Вы не можете удалять свои сообщения
Вы не можете голосовать в опросах
Вы не можете прикреплять файлы к сообщениям
Вы не можете скачивать файлы