Michael Pavlovich - Zbrush for Ideation Unit 01 The Basics (2018) торрент

Ответить на тему
 
Автор Сообщение

Prescious ®

Michael Pavlovich | Zbrush for Ideation Unit 01 The Basics (2018) PCRec [En, Ru] - Автор: Michael Pavlovich
Производство: Gumroad
Жанр: Создание видео
Описание:
Михаэль Павлович представляет вашему вниманию первую часть фундаментальной серии видео-курсов "Zbrush для Воображения". Эта часть называется "Основы", в нее входят 55 видео-уроков общей длительностью более 6 часов.

Продолжение описания:

В этой части курса будет представлен материал по файл-менеджменту и навигации, по созданию и управлению геометрией, по органическому и твердотельному скульптингу.
Мы разберемся с режимом Sculptris Pro, с инсталляцией плагинов и кастомизацией интерфейса.
Вы научитесь работать с сабтулами и разными типами файлов.
По окончанию курса вы будете владеть всеми основными методами использования Zbrush и уже сможете создавать любые типы моделей.
Этот курс основа всей остальной серии "Zbrush для воображения"
Продолжительность: 06:32:00
Качество видео: PCRec
Язык озвучки: Английский, Русский
Видео: AVC/H.264, 1920x1080, ~372 kbps
Аудио: AAC, 2 ch, 125 kbps
Аудио 2: MP3, 2 ch, 192 kbps (отдельным файлом)

MediaInfo:

General
Complete name : K:\[Gumroad] Zbrush for Ideation Unit 01 The Basics [ENG-RUS]\001_ZBrush_Lightbox.mp4
Format : MPEG-4
Format profile : Base Media / Version 2
Codec ID : mp42 (isom/mp42)
File size : 14.6 MiB
Duration : 4 min 4 s
Overall bit rate mode : Variable
Overall bit rate : 501 kb/s
Encoded date : UTC 2018-11-12 03:55:50
Tagged date : UTC 2018-11-12 03:55:50
Video
ID : 1
Format : AVC
Format/Info : Advanced Video Codec
Format profile : High@L4
Format settings : CABAC / 4 Ref Frames
Format settings, CABAC : Yes
Format settings, Reference fra : 4 frames
Codec ID : avc1
Codec ID/Info : Advanced Video Coding
Duration : 4 min 4 s
Bit rate : 372 kb/s
Width : 1 920 pixels
Height : 1 080 pixels
Display aspect ratio : 16:9
Frame rate mode : Constant
Frame rate : 30.000 FPS
Standard : NTSC
Color space : YUV
Chroma subsampling : 4:2:0
Bit depth : 8 bits
Scan type : Progressive
Bits/(Pixel*Frame) : 0.006
Stream size : 10.9 MiB (74%)
Language : English
Encoded date : UTC 2018-11-12 03:55:50
Tagged date : UTC 2018-11-12 03:55:50
Color range : Limited
Color primaries : BT.709
Transfer characteristics : BT.709
Matrix coefficients : BT.601
Codec configuration box : avcC
Audio
ID : 2
Format : AAC LC
Format/Info : Advanced Audio Codec Low Complexity
Codec ID : mp4a-40-2
Duration : 4 min 4 s
Bit rate mode : Variable
Bit rate : 126 kb/s
Maximum bit rate : 169 kb/s
Channel(s) : 2 channels
Channel layout : L R
Sampling rate : 44.1 kHz
Frame rate : 43.066 FPS (1024 SPF)
Compression mode : Lossy
Stream size : 3.66 MiB (25%)
Language : English
Encoded date : UTC 2018-11-12 03:55:50
Tagged date : UTC 2018-11-12 03:55:50

Дополнительная информация:

Программное обеспечение: ZBrush 2018.1
Файлы примеров: Нет

Содержание курса:

001 ZBrush Lightbox
002 ZBrush Canvas Document
003 ZBrush Menus Palettes and Docking
004 ZBrush Subpalette Popup
005 ZBrush File Handling
006 ZBrush Navigation
007 ZBrush Primitives
008 ZBrush Polymesh3D
009 ZBrush QuickSaves and File Recovery
010 ZBrush Undo
011 ZBrush Brush Basics
012 ZBrush Symmetry
013 ZBrush Move and Snakehook Brush
014 ZBrush Saving Brushes
015 ZBrush 3D Components
016 ZBrush Subdivisions
017 ZBrush Geometry Distribution
018 ZBrush Dynamesh
019 ZBrush Sculptris Pro
020 ZBrush Perspective
021 ZBrush Mirror And Weld
022 ZBrush Smooth Brush Modifiers
023 ZBrush Masking Basics
024 ZBrush Masking Options
025 ZBrush Brush Options
026 ZBrush Hard Surface Basic Brushes
027 ZBrush Visibility Modifier
028 ZBrush Polygroup Basics
029 ZBrush Material Basics
030 ZBrush Hotkeys
031 ZBrush ZModeler Basics
032 ZBrush Dynamic SmoothSubdiv
033 ZBrush Dynamic QGrid
034 ZBrush Installing Plugins
035 ZBrush Subtool Organization
036 Start Group Subtool Organization
037 Importing and Exporting
038 ZBrush Gizmo Base Functionality
039 ZBrush Gizmo Extra Functionality
040 ZBrush Subtool Practice
041 ZBrush Polypaint Basics
042 ZBrush Polypaint Strokes
043 ZBrush Polypaint Options
044 ZBrush Custom Interface and Menus
045 ZBrush File Size Cleanup
046 ZBrush Clip Curve Basics
047 ZBrush Slice and Trim Brush
048 ZBrush BRadius
049 ZBrush Dynamesh Groups
050 ZBrush Dynamesh Freeze Subdivision Level
052 ZBrush Transpose Basics
051 ZBrush Stroke Pause
053 ZBrush NonManifold Geometry
054 ZBrush Draw Size Preferences
Скриншоты:
Скачать .torrent

Чтобы скачать торрент-файл

Michael Pavlovich - Zbrush for Ideation Unit 01 The Basics (2018)

Вам нужно Авторизоваться на сайте под своим логином. Если у Вы ещё не зарегистрированы, тогда Вам нужно пройти Регистрацию


Показать сообщения:    
Ответить на тему

Скачать Michael Pavlovich - Zbrush for Ideation Unit 01 The Basics (2018) торрент бесплатно. Отзывы, слив складчины.

Текущее время: Сегодня 06:13

Часовой пояс: GMT + 4



Вы не можете начинать темы
Вы не можете отвечать на сообщения
Вы не можете редактировать свои сообщения
Вы не можете удалять свои сообщения
Вы не можете голосовать в опросах
Вы не можете прикреплять файлы к сообщениям
Вы не можете скачивать файлы