Ицхак Пинтосевич - Курс «Новый Я: революционная трансформация мышления для бизнеса и жизни» (2017) торрент

Ответить на тему
 
Автор Сообщение

Prescious ®

Ицхак Пинтосевич | Курс «Новый Я: революционная трансформация мышления для бизнеса и жизни» (2017) CamRip - Автор: Ицхак Пинтосевич
Жанр: Бизнес
Описание:
Двухмесячный курс, в который входит 8 занятий и 8 домашних заданий. Проходит в режиме онлайн, видео-лекции. Специальных навыков не требуется.
Для кого актуален:
Тем, кто хочет избавиться от заложенных в детстве программ и четко смотреть в будущее, используя в настоящем все доступные инструменты.

Продолжение описания:

В курс включены:
  • Занятие 1.
    Использование двух систем, которые помогут запоминать полученную информацию и использовать ее на практике.
  • Занятие 2.
    На этом занятии будет проработан план целей на год вперед. Также будет работа над определением характера.
  • Занятие 3.
    На основе настоящего построить программу себя будущего и найти баланс между физическим состоянием и эмоциональным.
  • Занятие 4.
    Как избавиться от негативных мыслей и сосредоточиться на достижении цели. Направить мысли на исполнение желаний.
  • Занятие 5.
    Важно уметь не только говорить «ДА», но и «НЕТ», чтобы быть успешным.
  • Занятие 6.
    Раскрытие интуитивного мышления, которое поможет на одном дыхании в достижении цели.
  • Занятие 7.
    Как понять свою роль в жизни, найти цели и определить ценности.
    Занятие 8.
    Проработка нового Я: введение привычек, которые должны изменить жизнь в лучшую сторону.
Как проходит процесс обучения
Участник самостоятельно один раз в неделю изучает лекцию. Новые знания и полученные инструменты в течение недели использует на практике, после чего отчитывается о полученных результатах. Доступ к новой информации не будет открыт, если материал не усвоен и не даль 100% результата. Преподаватель поддерживает обратную связь. Бонус для тех, кто успешно завершил обучение – 70 убеждений из системы Дональда Трампа, которые помогли ему стать президентом. Для закрепления навыков будет открыт доступ к книге «Сделай. Твой первый шаг».
Итог
Через 2 месяца слушатель улучшает себя на физическом, интеллектуальном, эмоциональном, духовном уровне. Его сознание остается спокойным в любой критической ситуации, и он умеет справляться с задачами любой сложности. Его рост больше не останавливают родительские программы, он успешно мотивирует себя и движется к своей цели, как в жизни, так и в бизнесе.
Подробнее на сайте: https://sbs.edu.ru/lp/pintosevich/kou-v1/
Продолжительность: 05:07:07
Качество видео: CamRip
Видео: AVC/H.264, 1280x720, ~1198
Аудио: AAC, 2 ch, 126 Kbps

MediaInfo:

e mode       : Variable
Overall bit rate : 1 328 kb/s
Encoded date : UTC 2017-01-24 11:18:31
Tagged date : UTC 2017-01-24 11:18:31
gsst : 0
gstd : 2798770
Video
ID : 1
Format : AVC
Format/Info : Advanced Video Codec
Format profile : Main@L3.1
Format settings, CABAC : Yes
Format settings, ReFrames : 3 frames
Codec ID : avc1
Codec ID/Info : Advanced Video Coding
Duration : 46 min
Bit rate : 1 198 kb/s
Width : 1 280 pixels
Height : 720 pixels
Display aspect ratio : 16:9
Frame rate mode : Constant
Frame rate : 30.000 FPS
Color space : YUV
Chroma subsampling : 4:2:0
Bit depth : 8 bits
Scan type : Progressive
Bits/(Pixel*Frame) : 0.043
Stream size : 400 MiB (90%)
Title : ISO Media file produced by Google Inc.
Encoded date : UTC 2017-01-24 11:18:31
Tagged date : UTC 2017-01-24 11:18:31
Color range : Limited
Color primaries : BT.709
Transfer characteristics : BT.709
Matrix coefficients : BT.709
Audio
ID : 2
Format : AAC
Format/Info : Advanced Audio Codec
Format profile : LC
Codec ID : 40
Duration : 46 min
Bit rate mode : Variable
Bit rate : 126 kb/s
Channel(s) : 2 channels
Channel positions : Front: L R
Sampling rate : 44.1 kHz
Frame rate : 43.066 FPS (1024 spf)
Compression mode : Lossy
Stream size : 41.9 MiB (9%)
Title : ISO Media file produced by Google Inc.
Encoded date : UTC 2017-01-24 11:18:31
Tagged date : UTC 2017-01-24 11:18:31
Скриншоты:
Скачать .torrent

Чтобы скачать торрент-файл

Ицхак Пинтосевич - Курс «Новый Я: революционная трансформация мышления для бизнеса и жизни» (2017)

Вам нужно Авторизоваться на сайте под своим логином. Если у Вы ещё не зарегистрированы, тогда Вам нужно пройти Регистрацию


Показать сообщения:    
Ответить на тему

Скачать Ицхак Пинтосевич - Курс «Новый Я: революционная трансформация мышления для бизнеса и жизни» (2017) торрент бесплатно. Отзывы, слив складчины.

Текущее время: Сегодня 18:46

Часовой пояс: GMT + 4



Вы не можете начинать темы
Вы не можете отвечать на сообщения
Вы не можете редактировать свои сообщения
Вы не можете удалять свои сообщения
Вы не можете голосовать в опросах
Вы не можете прикреплять файлы к сообщениям
Вы не можете скачивать файлы