Vitaly Bulgarov - Character Design and Modeling for Next-Gen Games (2009) торрент

Ответить на тему
 
Автор Сообщение

Prescious ®

Vitaly Bulgarov | Character Design and Modeling for Next-Gen Games (2009) PCRec - Автор: Vitaly Bulgarov
Производство: The Gnomon workshop
Жанр: Создание видео
Описание:
В этом DVD, Виталий Булгаров проведет вас через процесс создания высокодетализированных органико-механических персонажей с использованием XSI®, ZBrush® и Photoshop®. Виталий объясняет процесс концепции 2D/3D дизайна, а затем показывает процесс создания чистых детализированных сеток в пределах Softimage XSI, а также процесс лепки в ZBrush. Наконец, он показывает, как добавить характер и жизнь в твердую поверхность и сделать презентацию финальной высокополигональной модели с использованием ZBrush и Photoshop.
Продолжительность: 02:20:00
Качество видео: PCRec
Видео: AVC/H.264, 1024x768, ~1445kbps
Аудио: MP3, 1 ch, 48kbps

MediaInfo:

Общее
Полное имя : G:\ZBRUSH\Gnomon Character Design and Modeling for Next-Gen Games - Vitaly Bulgarov\VBU01_Lecture_01.mov
Формат : MPEG-4
Профиль формата : QuickTime
Идентификатор кодека : qt 2005.03 (qt )
Размер файла : 150 Мбайт
Продолжительность : 13 м. 58 с.
Общий поток : 1 496 Кбит/сек
Дата кодирования : UTC 2009-06-27 21:26:19
Дата пометки : UTC 2009-06-27 21:26:51
Библиотека кодирования : Apple QuickTime 7.6.0
com.apple.quicktime.player.movie.audio.mute : (Binary)
Видео
Идентификатор : 2
Формат : AVC
Формат/Информация : Advanced Video Codec
Профиль формата : Main@L3.1
Настройки формата : 2 Ref Frames
Параметр CABAC формата : Нет
Параметр RefFrames формата : 2 кадра
Параметр GOP формата : M=2, N=90
Идентификатор кодека : avc1
Идентификатор кодека/Информация : Advanced Video Coding
Продолжительность : 13 м. 58 с.
Продолжительность оригинала : 13 м. 58 с.
Битрейт : 1 445 Кбит/сек
Ширина : 1 024 пикселя
Высота : 768 пикселей
Соотношение сторон : 4:3
Режим частоты кадров : Постоянный
Частота кадров : 15,000 кадров/сек
Цветовое пространство : YUV
Субдискретизация насыщенности : 4:2:0
Битовая глубина : 8 бит
Тип развёртки : Прогрессивная
Бит/(Пиксели*Кадры) : 0.122
Размер потока : 144 Мбайт (97%)
Размер потока оригинала : 144 Мбайт (97%)
Язык : English
Дата кодирования : UTC 2009-06-10 20:16:08
Дата пометки : UTC 2009-06-27 21:26:51
Цветовой диапазон : Limited
Основные цвета : BT.709
Характеристики трансфера : BT.709
Коэффициенты матрицы : BT.709
Codec configuration box : avcC
Аудио
Идентификатор : 3
Формат : AAC LC
Формат/Информация : Advanced Audio Codec Low Complexity
Идентификатор кодека : mp4a-40-2
Продолжительность : 13 м. 58 с.
Вид битрейта : Постоянный
Битрейт : 48,0 Кбит/сек
Каналы : 1 канал
Channel layout : C
Частота : 22,05 КГц
Частота кадров : 21,533 кадра/сек (1024 SPF)
Метод сжатия : С потерями
Размер потока : 4,82 Мбайт (3%)
Язык : English
Дата кодирования : UTC 2009-06-27 21:25:24
Дата пометки : UTC 2009-06-27 21:26:51

Дополнительная информация:

Об авторе: Виталий Булгаров является награжденным победителем 3D художником, который в настоящее время работает в компании Blizzard Entertainment в качестве кинохудожника. Он начал свою карьеру в Молдове в качестве внештатного художника около шести лет назад. После переезда в Москву он работал в крупных игровых студиях России в качестве штатного художника, в то же время продолжая работать как фрилансер для американских и европейских студий. Виталий регулярно участвует в интернет-форумах CG художников и завоевал множество наград, включая премию CG Choice, а также Excellence Award 3Dtotal.
Скриншоты:
Скачать .torrent

Чтобы скачать торрент-файл

Vitaly Bulgarov - Character Design and Modeling for Next-Gen Games (2009)

Вам нужно Авторизоваться на сайте под своим логином. Если у Вы ещё не зарегистрированы, тогда Вам нужно пройти Регистрацию


Показать сообщения:    
Ответить на тему

Скачать Vitaly Bulgarov - Character Design and Modeling for Next-Gen Games (2009) торрент бесплатно. Отзывы, слив складчины.

Текущее время: Сегодня 18:43

Часовой пояс: GMT + 4



Вы не можете начинать темы
Вы не можете отвечать на сообщения
Вы не можете редактировать свои сообщения
Вы не можете удалять свои сообщения
Вы не можете голосовать в опросах
Вы не можете прикреплять файлы к сообщениям
Вы не можете скачивать файлы