Борис Малаев - Комплект Вершителя Судьбы + Бонусы (2014) торрент

Ответить на тему
 
Автор Сообщение

Prescious ®

Борис Малаев | Комплект Вершителя Судьбы + Бонусы (2014) PCRec - Автор: Борис Малаев
Жанр: Видеокурсы
Описание:
Очень часто мы хотим чего-то достичь, но не знаем точно, как лучше это сделать. Как правило в нашей жизни всё случается как будто само собой.
Комплект Вершителя Судьбы поможет Вам получить полное и исчерпывающее пошаговое руководство для успешной и гармоничной жизни. Работа с методиками изложенными в обучающем комплекте позволяет получить как быстрые результаты, так и формирует долговременные позитивные программы личностного развития во всех сферах жизни.
По Практическому Применению Законов Жизни Для Быстрого Достижения Своих Личных Целей??
Вы научитесь правильно выявлять и устранять главные причины жизненных проблем, болезней и неудач.?

Продолжение описания:

Вы станете абсолютно спокойны, и из вашей жизни уйдет беспорядок и хаос. Вы будете абсолютно уверены, что стать для вас счастливым – это просто вопрос времени.?
Конечно же вы Вы получите навыки грамотной постановки целей и формирования своего будущего, тем самым позволяя себе жить так, как так давно мечтаете!?
Вы познаете осноовы энергии процветания и начнете видеть мир по-другому! Отныне для вас причины для радости будут повсюду! Тотальное изобилие всех благ! Подходи и бери!?
Ваши близкие и друзья начнут Вами восхищаться и обожать Вас, потому что вы наконец-то поймете, как сильно проявились Ваши внутренние ценности! Они начнут умолят Вас рассказать как Вам это удалось!?
Ваш стиль жизни измениться навсегда! Вы научитесь расшифровывать уроки судьбы!?
Вы начнете намного меньше напрягаться и беспокоиться. Вы сможете полностью вывести себя из рутины. И больше времени начнете уделять поистине важным вещам: семье, развлечениям, друзьям, отношениям и т.д.?
Вас начнут уважать другие люди, потому что вы начнете показывать другие результаты. Вы добьетесь признания! Вы ведь знаете, что судят именно по результатам! Вам действительно будет, чем похвастаться.?
На вопрос «Как дела?» вы будете искренне отвечать: «Просто шикарно! Супер! Моя радость бъет через край!» И это не будет ложью или обманом, как это бывает обычно!?
Вы обретете уникальную способность легко преодолевать трудные жизненные ситуации.?
Вы научитесь эффективно решать личные проблемы.?
Вы узнаете как грамотно выстраивать взаимоотношения.?
Получите навыки привлечения материального благополучия в свою жизнь.?
Вы сможете безошибочно пользоваться своей интуицией.?
Вы раскроете глубочайшие тайны мужской и женской психики.?
Вы наконец найдете свое истинное жизненное предназначение.?
Вы постигните незыблемые принципы успешной и счастливой жизни.?
Продолжительность: 15:00:00
Качество видео: PCRec
Видео: AVC/H.264, 640x480, ~1014 kbps
Аудио: AAC, 2 ch, 192 kbps

MediaInfo:

General
Format : MPEG-4
Format profile : Base Media / Version 2
Codec ID : mp42 (isom/mp42)
File size : 585 MiB
Duration : 1 h 8 min
Overall bit rate mode : Variable
Overall bit rate : 1 189 kb/s
Encoded date : UTC 2012-09-17 11:04:40
Tagged date : UTC 2012-09-17 11:04:40
Video
ID : 2
Format : AVC
Format/Info : Advanced Video Codec
Format profile : Baseline@L3.1
Format settings, CABAC : No
Format settings, ReFrames : 1 frame
Format settings, GOP : M=1, N=30
Codec ID : avc1
Codec ID/Info : Advanced Video Coding
Duration : 1 h 8 min
Bit rate : 997 kb/s
Width : 640 pixels
Height : 480 pixels
Display aspect ratio : 4:3
Frame rate mode : Constant
Frame rate : 30.000 FPS
Standard : NTSC
Color space : YUV
Chroma subsampling : 4:2:0
Bit depth : 8 bits
Scan type : Progressive
Bits/(Pixel*Frame) : 0.108
Stream size : 490 MiB (84%)
Language : English
Encoded date : UTC 2012-09-17 11:04:40
Tagged date : UTC 2012-09-17 11:04:40
Color range : Limited
Audio
ID : 1
Format : AAC
Format/Info : Advanced Audio Codec
Format profile : LC
Codec ID : 40
Duration : 1 h 8 min
Bit rate mode : Variable
Bit rate : 192 kb/s
Maximum bit rate : 526 kb/s
Channel(s) : 2 channels
Channel positions : Front: L R
Sampling rate : 44.1 kHz
Frame rate : 43.066 FPS (1024 spf)
Compression mode : Lossy
Stream size : 93.3 MiB (16%)
Language : English
Encoded date : UTC 2012-09-17 11:04:40
Tagged date : UTC 2012-09-17 11:04:40
Скриншоты:
Скачать .torrent

Чтобы скачать торрент-файл

Борис Малаев - Комплект Вершителя Судьбы + Бонусы (2014)

Вам нужно Авторизоваться на сайте под своим логином. Если у Вы ещё не зарегистрированы, тогда Вам нужно пройти Регистрацию


Показать сообщения:    
Ответить на тему

Скачать Борис Малаев - Комплект Вершителя Судьбы + Бонусы (2014) торрент бесплатно. Отзывы, слив складчины.

Текущее время: Сегодня 14:46

Часовой пояс: GMT + 4



Вы не можете начинать темы
Вы не можете отвечать на сообщения
Вы не можете редактировать свои сообщения
Вы не можете удалять свои сообщения
Вы не можете голосовать в опросах
Вы не можете прикреплять файлы к сообщениям
Вы не можете скачивать файлы