Ольга Бутакова - Здоровый и функциональный мозг в любом возрасте (2018) торрент

Ответить на тему
 
Автор Сообщение

Prescious ®

Ольга Бутакова | Здоровый и функциональный мозг в любом возрасте (2018) CamRip - Автор: Ольга Бутакова
Жанр: Видеокурсы
Описание:
Наш мозг – самая удивительная и сложная система нашего организма. Он позволяет нам любоваться закатом, учить иностранный язык, рассказывать анекдоты, узнавать друга, убегать от опасности и читать это предложение.
За последние 20 лет ученые нейрофизиологи узнали многое о том, как нашему мозгу удаётся всё это делать. Вы получите представление о том, как в действительности работает наш мозг и как ему помочь работать ещё лучше.
Мы ответим с вами на многие вопросы:
Как сохранить спокойствие в любой ситуации и принимать единственное верное решение.
Как увеличить шанс на «озарение», которое так необходимо при решении творческих задач.
Как научиться неконфликтно влиять на других.
Как забывать плохое и помнить хорошее.
И многие другие...

Программа курса:

Занятие 1. Мозг, объятый страхом
– Что такое страх?
– Для чего он нужен?
– Можем ли мы побороть страх?
– Каковы последствия страха?
– Что делать, чтобы страх не разрушал мозг?
– Как заметить страх у детей.
– Страх как пусковой механизм заболеваний.
Занятие 2. Причины заболеваний мозга
– Функции мозга.
– Проявления заболеваний мозга.
– Память. Механизмы памяти.
– Чувствительность.
– Воображение.
– И многое другое.
Продолжительность: 05:24:58
Качество видео: CamRip
Видео: AVC/H.264, 640x360, ~260 kbps
Аудио: AAC, 2 ch, 96 kbs

MediaInfo:

General
Format : MPEG-4
Format profile : Base Media
Codec ID : isom (isom)
File size : 260 MiB
Duration : 1 h 41 min
Overall bit rate mode : Variable
Overall bit rate : 359 kb/s
Encoded date : UTC 2017-12-22 16:34:32
Tagged date : UTC 2017-12-22 16:34:32
Video
ID : 1
Format : AVC
Format/Info : Advanced Video Codec
Format profile : Baseline@L3
Format settings, CABAC : No
Format settings, ReFrames : 1 frame
Codec ID : avc1
Codec ID/Info : Advanced Video Coding
Duration : 1 h 41 min
Bit rate : 260 kb/s
Maximum bit rate : 1 290 kb/s
Width : 640 pixels
Height : 360 pixels
Display aspect ratio : 16:9
Frame rate mode : Constant
Frame rate : 25.000 FPS
Color space : YUV
Chroma subsampling : 4:2:0
Bit depth : 8 bits
Scan type : Progressive
Bits/(Pixel*Frame) : 0.045
Stream size : 189 MiB (73%)
Tagged date : UTC 2017-12-22 16:34:44
Color range : Limited
Color primaries : BT.709
Transfer characteristics : BT.709
Matrix coefficients : BT.709
Audio
ID : 2
Format : AAC
Format/Info : Advanced Audio Codec
Format profile : LC
Codec ID : 40
Duration : 1 h 41 min
Bit rate mode : Variable
Bit rate : 96.0 kb/s
Maximum bit rate : 103 kb/s
Channel(s) : 2 channels
Channel positions : Front: L R
Sampling rate : 44.1 kHz
Frame rate : 43.066 FPS (1024 spf)
Compression mode : Lossy
Stream size : 69.6 MiB (27%)
Title : IsoMedia File Produced by Google, 5-11-2011
Encoded date : UTC 2017-12-23 15:21:43
Tagged date : UTC 2017-12-22 16:34:44
Скриншоты:
Скачать .torrent

Чтобы скачать торрент-файл

Ольга Бутакова - Здоровый и функциональный мозг в любом возрасте (2018)

Вам нужно Авторизоваться на сайте под своим логином. Если у Вы ещё не зарегистрированы, тогда Вам нужно пройти Регистрацию


Показать сообщения:    
Ответить на тему

Скачать Ольга Бутакова - Здоровый и функциональный мозг в любом возрасте (2018) торрент бесплатно. Отзывы, слив складчины.

Текущее время: Сегодня 13:56

Часовой пояс: GMT + 4



Вы не можете начинать темы
Вы не можете отвечать на сообщения
Вы не можете редактировать свои сообщения
Вы не можете удалять свои сообщения
Вы не можете голосовать в опросах
Вы не можете прикреплять файлы к сообщениям
Вы не можете скачивать файлы