Тимур Константинов - Дизайн и анимация HUD&UI (2020) торрент

Ответить на тему
 
Автор Сообщение

Prescious ®

Тимур Константинов | Дизайн и анимация HUD&UI (2020) - Автор: Тимур Константинов
Производство: VideoSmile
Жанр: Графика, анимация
Описание:
Курс состоит из 36 занятий, которые объединены в 4 главы, и 8 увлекательных домашних заданий. Длительность курса составляет более 26 часов (одних только видеоуроков!).
В курсе детально рассматривается процесс создания HUD&UI-элементов с самого нуля
до профессиональных вершин.
Курс, по сути является квинтэссенцией 10-летнего опыта Тимура в сфере моушен-дизайна.

Продолжение описания:

Мы считаем, что наиболее важная часть обучения — практика и обратная связь. Именно поэтому в каждой главе этого курса вы будете много рисовать и анимировать и по итогу курса получите несколько классных анимированных сцен в своё портфолио. А помогать вам в этом, помимо автора, будут наши кураторы, которые также являются практикующими моушен-дизайнерами.
Приступать к изучению данного курса мы рекомендуем тем студентам, кто владеет базовыми навыками работы в программах After Effects и Illustrator, а также разбирается в работе выражений в After Effects.
Файлы примеров отсутствуют
Продолжительность: 26:59:50
Видео: AVC/H.264, 1080x1920 - 1440x2560, 30fps, ~1 093 Кбит/сек
Аудио: AAC, 2 ch, 129 Кбит/сек

MediaInfo:

Полное имя                               : Дизайн и анимация HUD&UI\Chapter 4\10. Миникарта и пэкшот.mp4
Формат : MPEG-4
Профиль формата : Base Media
Идентификатор кодека : isom (isom/iso2/avc1/mp41)
Размер файла : 114 Мбайт
Продолжительность : 12 м. 59 с.
Общий поток : 1 231 Кбит/сек
Программа кодирования : Lavf58.29.100
Видео
Идентификатор : 1
Формат : AVC
Формат/Информация : Advanced Video Codec
Профиль формата : High@L5
Настройки формата : CABAC / 5 Ref Frames
Параметр CABAC формата : Да
Параметр RefFrames формата : 5 кадров
Идентификатор кодека : avc1
Идентификатор кодека/Информация : Advanced Video Coding
Продолжительность : 12 м. 59 с.
Битрейт : 1 093 Кбит/сек
Номинальный битрейт : 1 200 Кбит/сек
Ширина : 2 560 пикселей
Высота : 1 440 пикселей
Соотношение сторон : 16:9
Режим частоты кадров : Постоянный
Частота кадров : 30,000 кадров/сек
Цветовое пространство : YUV
Субдискретизация насыщенности : 4:2:0
Битовая глубина : 8 бит
Тип развёртки : Прогрессивная
Бит/(Пиксели*Кадры) : 0.010
Размер потока : 102 Мбайт (89%)
Библиотека кодирования : x264 core 157
Настройки программы : cabac=1 / ref=5 / deblock=1:0:0 / analyse=0x3:0x113 / me=hex / subme=8 / psy=1 / psy_rd=1.00:0.00 / mixed_ref=1 / me_range=16 / chroma_me=1 / trellis=2 / 8x8dct=1 / cqm=0 / deadzone=21,11 / fast_pskip=1 / chroma_qp_offset=-2 / threads=12 / lookahead_threads=2 / sliced_threads=0 / nr=0 / decimate=1 / interlaced=0 / bluray_compat=0 / constrained_intra=0 / bframes=3 / b_pyramid=2 / b_adapt=1 / b_bias=0 / direct=3 / weightb=1 / open_gop=0 / weightp=2 / keyint=250 / keyint_min=25 / scenecut=40 / intra_refresh=0 / rc_lookahead=40 / rc=2pass / mbtree=1 / bitrate=1200 / ratetol=1.0 / qcomp=0.60 / qpmin=0 / qpmax=69 / qpstep=4 / cplxblur=20.0 / qblur=0.5 / vbv_maxrate=1800 / vbv_bufsize=2400 / nal_hrd=none / filler=0 / ip_ratio=1.40 / aq=1:1.00
Menus : 3
Codec configuration box : avcC
Аудио
Идентификатор : 2
Формат : AAC LC
Формат/Информация : Advanced Audio Codec Low Complexity
Идентификатор кодека : mp4a-40-2
Продолжительность : 12 м. 59 с.
Вид битрейта : Постоянный
Битрейт : 129 Кбит/сек
Каналы : 1 канал
Channel layout : C
Частота : 44,1 КГц
Частота кадров : 43,066 кадра/сек (1024 SPF)
Метод сжатия : С потерями
Размер потока : 12,0 Мбайт (10%)
Default : Да
Alternate group : 1
Menus : 3
Меню #1
Идентификатор : 3
Идентификатор кодека : text
Продолжительность : 12 м. 59 с.
Язык : English
Menu For : 1,2
Duration_FirstFrame : -345266
00:00:00.000 : Chapter 001
00:03:37.067 : Packshot
Меню #2
00:00:00.000 : Chapter 001
00:03:37.066 : Packshot
Скриншоты:
Скачать .torrent

Чтобы скачать торрент-файл

Тимур Константинов - Дизайн и анимация HUD&UI (2020)

Вам нужно Авторизоваться на сайте под своим логином. Если у Вы ещё не зарегистрированы, тогда Вам нужно пройти Регистрацию


Показать сообщения:    
Ответить на тему

Скачать Тимур Константинов - Дизайн и анимация HUD&UI (2020) торрент бесплатно. Отзывы, слив складчины.

Текущее время: Сегодня 12:36

Часовой пояс: GMT + 4



Вы не можете начинать темы
Вы не можете отвечать на сообщения
Вы не можете редактировать свои сообщения
Вы не можете удалять свои сообщения
Вы не можете голосовать в опросах
Вы не можете прикреплять файлы к сообщениям
Вы не можете скачивать файлы