Школа Кайно, Павел Голубев - Курс WAGON. Основы 3D в BLENDER с Нуля для Новичков (2020) торрент

Ответить на тему
 
Автор Сообщение

Prescious ®

Школа Кайно, Павел Голубев | Курс WAGON. Основы 3D в BLENDER с Нуля для Новичков (2020) PCRec - Автор: Павел Голубев
Производство: Школа Кайно
Жанр: Обучающее видео, видеоурок
Описание:
Основы blender 2.91, инструменты, моделирование кареты
Содержимое курса:
01. ЗНАКОМСТВО. Курс WAGON. Основы 3D в BLENDER с Нуля для Новичков. Университет Кайно
02. УСТАНОВКА BLENDER. Курс WAGON. Основы 3D в BLENDER с Нуля для Новичков. Университет Кайно
03. НАСТРОЙКИ. Курс WAGON. Основы 3D в BLENDER с Нуля для Новичков. Университет Кайно
04. ИНТЕРФЕЙС Ч.1. Курс WAGON. Основы 3D в BLENDER с Нуля для Новичков. Университет Кайно
05. ИНТЕРФЕЙС Ч.2. Курс WAGON. Основы 3D в BLENDER с Нуля для Новичков. Университет Кайно
06. ИНСТРУМЕНТЫ Ч.1. Курс WAGON. Основы 3D в BLENDER с Нуля для Новичков. Университет Кайно
07. ИНСТРУМЕНТЫ Ч.2. Курс WAGON. Основы 3D в BLENDER с Нуля для Новичков. Университет Кайно

Продолжение описания::

08. ИНСТРУМЕНТЫ Ч.3. Курс WAGON. Основы 3D в BLENDER с Нуля для Новичков. Университет Кайно
09. МОДИФИКАТОРЫ Ч.1. Курс WAGON. Основы 3D в BLENDER с Нуля для Новичков. Университет Кайно
10. МОДИФИКАТОРЫ Ч.2. Курс WAGON. Основы 3D в BLENDER с Нуля для Новичков. Университет Кайно
11. МОДЕЛИРОВАНИЕ Ч.1. Курс WAGON. Основы 3D в BLENDER с Нуля для Новичков. Университет Кайно
12. МОДЕЛИРОВАНИЕ Ч.2. Курс WAGON. Основы 3D в BLENDER с Нуля для Новичков. Университет Кайно
13. МОДЕЛИРОВАНИЕ Ч.3. Курс WAGON. Основы 3D в BLENDER с Нуля для Новичков. Университет Кайно
14. МОДЕЛИРОВАНИЕ Ч.4. Курс WAGON. Основы 3D в BLENDER с Нуля для Новичков. Университет Кайно
15. МОДЕЛИРОВАНИЕ Ч.5. Курс WAGON. Основы 3D в BLENDER с Нуля для Новичков. Университет Кайно
16. МОДЕЛИРОВАНИЕ Ч.6. Курс WAGON. Основы 3D в BLENDER с Нуля для Новичков. Университет Кайно
17. МОДЕЛИРОВАНИЕ Ч.7. Курс WAGON. Основы 3D в BLENDER с Нуля для Новичков. Университет Кайно
18. МОДЕЛИРОВАНИЕ Ч.8. Курс WAGON. Основы 3D в BLENDER с Нуля для Новичков. Университет Кайно
19. МОДЕЛИРОВАНИЕ Ч.9. Курс WAGON. Основы 3D в BLENDER с Нуля для Новичков. Университет Кайно
20. МОДЕЛИРОВАНИЕ Ч.10. Курс WAGON. Основы 3D в BLENDER с Нуля для Новичков. Университет Кайно
21. МОДЕЛИРОВАНИЕ Ч.11. Курс WAGON. Основы 3D в BLENDER с Нуля для Новичков. Университет Кайно
22. МОДЕЛИРОВАНИЕ Ч.12. Курс WAGON. Основы 3D в BLENDER с Нуля для Новичков. Университет Кайно
23. МОДЕЛИРОВАНИЕ Ч.13. Курс WAGON. Основы 3D в BLENDER с Нуля для Новичков. Университет Кайно
24. МАТЕРИАЛЫ Ч.1. Курс WAGON. Основы 3D в BLENDER с Нуля для Новичков. Университет Кайно
25. МАТЕРИАЛЫ Ч.2. Курс WAGON. Основы 3D в BLENDER с Нуля для Новичков. Университет Кайно
26. МАТЕРИАЛЫ Ч.3. Курс WAGON. Основы 3D в BLENDER с Нуля для Новичков. Университет Кайно
27. МАТЕРИАЛЫ Ч.4. Курс WAGON. Основы 3D в BLENDER с Нуля для Новичков. Университет Кайно
28. ОСВЕЩЕНИЕ. Курс WAGON. Основы 3D в BLENDER с Нуля для Новичков. Университет Кайно
29. РЕНДЕР. Курс WAGON. Основы 3D в BLENDER с Нуля для Новичков. Университет Кайно
Продолжительность: 07:07:02
Качество видео: PCRec
Видео: AVC/H.264, 1920 × 1080, 16:9, 24fps, ~1370
Аудио: MP3, 2 ch, 128

MediaInfo:

Общее
Формат : MPEG-4
Профиль формата : Base Media
Идентификатор кодека : isom (isom/iso2/avc1/mp41)
Размер файла : 64,8 Мбайт
Продолжительность : 6 м. 1 с.
Общий поток : 1 503 Кбит/сек
Программа кодирования : Lavf58.20.100
Видео
Идентификатор : 1
Формат : AVC
Формат/Информация : Advanced Video Codec
Профиль формата : High@L4
Настройки формата : CABAC / 3 Ref Frames
Параметр CABAC формата : Да
Параметр RefFrames формата : 3 кадра
Идентификатор кодека : avc1
Идентификатор кодека/Информация : Advanced Video Coding
Продолжительность : 6 м. 1 с.
Duration_FirstFrame : -42 мс.
Битрейт : 1 370 Кбит/сек
Ширина : 1 920 пикселей
Высота : 1 080 пикселей
Соотношение сторон : 16:9
Режим частоты кадров : Переменный
Частота кадров : 24,000 кадра/сек
Минимальная частота кадров : 24,000 кадра/сек
Максимальная частота кадров : 24,013 кадра/сек
Цветовое пространство : YUV
Субдискретизация насыщенности : 4:2:0
Битовая глубина : 8 бит
Тип развёртки : Прогрессивная
Бит/(Пиксели*Кадры) : 0.028
Размер потока : 59,0 Мбайт (91%)
Цветовой диапазон : Limited
Основные цвета : BT.709
Характеристики трансфера : BT.709
Коэффициенты матрицы : BT.709
Codec configuration box : avcC
Аудио
Идентификатор : 2
Формат : AAC LC
Формат/Информация : Advanced Audio Codec Low Complexity
Идентификатор кодека : mp4a-40-2
Продолжительность : 6 м. 1 с.
Вид битрейта : Постоянный
Битрейт : 128 Кбит/сек
Каналы : 2 канала
Channel layout : L R
Частота : 44,1 КГц
Частота кадров : 43,066 кадра/сек (1024 SPF)
Метод сжатия : С потерями
Размер потока : 5,52 Мбайт (9%)
Default : Да
Alternate group : 1
Скриншоты:
Скачать .torrent

Чтобы скачать торрент-файл

Школа Кайно, Павел Голубев - Курс WAGON. Основы 3D в BLENDER с Нуля для Новичков (2020)

Вам нужно Авторизоваться на сайте под своим логином. Если у Вы ещё не зарегистрированы, тогда Вам нужно пройти Регистрацию


Показать сообщения:    
Ответить на тему

Скачать Школа Кайно, Павел Голубев - Курс WAGON. Основы 3D в BLENDER с Нуля для Новичков (2020) торрент бесплатно. Отзывы, слив складчины.

Текущее время: Сегодня 10:07

Часовой пояс: GMT + 4



Вы не можете начинать темы
Вы не можете отвечать на сообщения
Вы не можете редактировать свои сообщения
Вы не можете удалять свои сообщения
Вы не можете голосовать в опросах
Вы не можете прикреплять файлы к сообщениям
Вы не можете скачивать файлы